<?xml version="1.0" standalone="no"?>
<!DOCTYPE svg PUBLIC "-//W3C//DTD SVG 1.1//EN" "http://www.w3.org/Graphics/SVG/1.1/DTD/svg11.dtd" >
<svg xmlns="http://www.w3.org/2000/svg">
<metadata></metadata>
<defs>
<font id="gentonalight" horiz-adv-x="1327" >
<font-face units-per-em="2048" ascent="1638" descent="-410" />
<missing-glyph horiz-adv-x="471" />
<glyph unicode="&#xfb01;" horiz-adv-x="1101" d="M49 842v116h141v93q0 162 68.5 239.5t226.5 77.5q69 0 222 -22l-13 -105q-125 12 -188 12q-100 0 -140 -49t-40 -153v-93h614v-958h-137v842h-477v-842h-136v842h-141zM788 1237q0 38 24.5 60t61.5 22t62 -22t25 -60q0 -37 -25 -58.5t-62 -21.5t-61.5 21.5t-24.5 58.5z " />
<glyph unicode="&#xfb02;" horiz-adv-x="1095" d="M49 842v116h141v93q0 162 68.5 239.5t226.5 77.5q93 0 318 -41v35h135v-1362h-135v1229q-177 24 -297 24q-100 0 -140 -49t-40 -153v-93h309v-116h-309v-842h-136v842h-141z" />
<glyph horiz-adv-x="2048" />
<glyph horiz-adv-x="2048" />
<glyph unicode="&#xd;" horiz-adv-x="2048" />
<glyph unicode=" "  horiz-adv-x="471" />
<glyph unicode="&#x09;" horiz-adv-x="471" />
<glyph unicode="&#xa0;" horiz-adv-x="471" />
<glyph unicode="!" horiz-adv-x="421" d="M133 74q0 34 21.5 55t56.5 21t56.5 -21t21.5 -55t-21.5 -57t-56.5 -23t-56.5 23t-21.5 57zM137 1249h148l-19 -854h-112z" />
<glyph unicode="&#x22;" horiz-adv-x="587" d="M117 817v524h129l-37 -524h-92zM336 817v524h131l-39 -524h-92z" />
<glyph unicode="#" horiz-adv-x="1402" d="M92 283l21 100h254l88 362h-250l20 101h254l70 280h115l-70 -280h352l70 280h112l-69 -280h266l-20 -101h-269l-90 -362h266l-20 -100h-270l-70 -283h-115l70 283h-350l-70 -283h-115l70 283h-250zM479 383h352l91 362h-353z" />
<glyph unicode="$" horiz-adv-x="1069" d="M74 160l53 96q190 -164 436 -164q119 0 188.5 50t69.5 134q0 85 -65.5 133t-266.5 113q-206 66 -282 132t-76 190q0 119 90.5 192t245.5 76v139h98v-143q166 -17 344 -102l-37 -97q-228 99 -380 99q-104 0 -167 -45t-63 -119q0 -82 60.5 -124t261.5 -106 q209 -64 289.5 -137.5t80.5 -197.5q0 -133 -105.5 -215t-283.5 -82v-119h-98v125q-220 21 -393 172z" />
<glyph unicode="%" horiz-adv-x="1703" d="M90 899q0 181 77.5 276t225.5 95t224.5 -94.5t76.5 -276.5q0 -180 -76.5 -273.5t-224.5 -93.5t-225.5 93.5t-77.5 273.5zM186 899q0 -136 52.5 -207t154.5 -71q101 0 153 71t52 207q0 138 -52 210.5t-153 72.5q-102 0 -154.5 -72t-52.5 -211zM428 0l733 1249h92 l-735 -1249h-90zM1010 350q0 180 77.5 275.5t225.5 95.5q147 0 224 -95t77 -276q0 -180 -76.5 -274t-224.5 -94t-225.5 94t-77.5 274zM1106 350q0 -136 52.5 -208t154.5 -72q101 0 153 72t52 208q0 137 -52 210t-153 73q-102 0 -154.5 -73t-52.5 -210z" />
<glyph unicode="&#x26;" horiz-adv-x="1308" d="M100 332q0 106 71 178.5t232 146.5q-100 97 -139 167.5t-39 156.5q0 133 94.5 211t255.5 78q151 0 240.5 -79.5t89.5 -219.5q0 -104 -69.5 -188t-229.5 -150l357 -301q68 96 141 235l96 -57q-77 -148 -149 -248l198 -166l-67 -96l-203 170q-90 -100 -187.5 -144 t-222.5 -44q-221 0 -345 91t-124 259zM236 346q0 -119 91 -186.5t242 -67.5q96 0 173 36.5t149 115.5l-404 340q-134 -58 -192.5 -109.5t-58.5 -128.5zM350 979q0 -72 36.5 -128t131.5 -144q159 65 218 122.5t59 135.5q0 100 -59.5 154.5t-160.5 54.5q-99 0 -162 -53.5 t-63 -141.5z" />
<glyph unicode="'" horiz-adv-x="368" d="M129 817v524h131l-39 -524h-92z" />
<glyph unicode="(" horiz-adv-x="630" d="M180 500q0 475 307 850l86 -56q-268 -362 -268 -794q0 -431 268 -797l-86 -55q-307 375 -307 852z" />
<glyph unicode=")" horiz-adv-x="624" d="M68 -297q268 366 268 797q0 430 -268 796l86 54q307 -375 307 -850q0 -477 -307 -852z" />
<glyph unicode="*" horiz-adv-x="845" d="M109 993l22 70l244 -78l10 264h76l10 -264l246 78l22 -70l-239 -98l157 -205l-55 -47l-178 199l-180 -199l-56 47l158 207z" />
<glyph unicode="+" horiz-adv-x="952" d="M70 430v107h352v352h102v-354h357v-103l-357 -2v-352h-102v352h-352z" />
<glyph unicode="," horiz-adv-x="507" d="M125 -215q60 53 85 103.5t34 111.5q-31 6 -49.5 28.5t-18.5 53.5q0 39 24.5 63.5t63.5 24.5t63.5 -28t24.5 -70q0 -192 -186 -330z" />
<glyph unicode="-" horiz-adv-x="798" d="M135 516v123h529v-123h-529z" />
<glyph unicode="." horiz-adv-x="487" d="M156 84q0 38 24 62t64 24t64 -24t24 -62q0 -39 -24.5 -64.5t-63.5 -25.5t-63.5 25.5t-24.5 64.5z" />
<glyph unicode="/" horiz-adv-x="835" d="M76 -420l528 1780h121l-530 -1780h-119z" />
<glyph unicode="0" horiz-adv-x="1251" d="M104 625q0 311 134.5 478t388.5 167t387 -166.5t133 -478.5q0 -311 -133 -477t-387 -166t-388.5 166.5t-134.5 476.5zM246 625q0 -251 96.5 -383.5t284.5 -132.5q186 0 282.5 132.5t96.5 383.5q0 252 -96.5 385t-282.5 133q-188 0 -284.5 -133t-96.5 -385z" />
<glyph unicode="1" horiz-adv-x="972" d="M115 1075q213 70 372 174h109v-1128h283v-121h-758v121h336v964q-143 -62 -316 -98z" />
<glyph unicode="2" horiz-adv-x="1054" d="M80 1143q264 127 487 127q187 0 293.5 -103t106.5 -282q0 -46 -11 -90.5t-37 -89t-53 -83t-74.5 -85t-84.5 -80.5t-100.5 -84t-105.5 -82t-116.5 -88t-116.5 -88q8 0 74.5 3t95.5 3h557v-121h-909v102q61 51 154.5 125t153.5 122t135 112t121 112.5t89.5 103t63.5 106 t20 100.5q0 126 -73 197t-203 71q-199 0 -426 -111z" />
<glyph unicode="3" horiz-adv-x="1073" d="M59 104l43 99q107 -53 230.5 -80t230.5 -27q141 0 226 65t85 175q0 123 -91.5 185.5t-258.5 62.5h-184v121h184q316 0 316 200q0 112 -77.5 179t-205.5 67q-98 0 -214 -27.5t-222 -74.5l-35 96q241 119 485 119q179 0 289.5 -94.5t110.5 -247.5q0 -105 -62 -176.5 t-168 -100.5q269 -70 269 -311q0 -161 -121 -256.5t-322 -95.5q-126 0 -262 31.5t-246 90.5z" />
<glyph unicode="4" horiz-adv-x="1212" d="M63 403l748 846h137v-833h219v-121h-219v-295h-137v295h-741zM227 416h584v661q-90 -114 -106 -131l-357 -397q-59 -71 -121 -133z" />
<glyph unicode="5" horiz-adv-x="1097" d="M59 104l43 103q213 -105 441 -105q150 0 244 77t94 204q0 121 -85.5 195.5t-224.5 74.5q-148 0 -315 -82l-119 19l49 659h783v-121h-662l-35 -454q180 78 334 78q186 0 297 -101.5t111 -271.5q0 -182 -127 -289.5t-330 -107.5q-123 0 -254.5 31.5t-243.5 90.5z" />
<glyph unicode="6" horiz-adv-x="1155" d="M104 578q0 312 167 502t429 190q180 0 326 -64l-35 -102q-146 51 -284 51q-208 -2 -333.5 -151t-131.5 -412q68 94 174.5 149.5t245.5 55.5q191 0 306 -105.5t115 -283.5q0 -200 -125.5 -313t-332.5 -113q-254 0 -387.5 155.5t-133.5 440.5zM248 473q20 -183 115.5 -280 t261.5 -97q144 0 235.5 83t91.5 235q0 132 -88.5 209t-236.5 77q-131 0 -231 -64t-148 -163z" />
<glyph unicode="7" horiz-adv-x="925" d="M23 1128v121h895v-106q-178 -218 -329 -530t-231 -613h-161q89 305 239 610.5t326 517.5h-739z" />
<glyph unicode="8" horiz-adv-x="1193" d="M82 332q0 238 313 319q-254 80 -254 291q0 151 124.5 239.5t338.5 88.5q206 0 326.5 -87.5t120.5 -234.5q0 -214 -273 -289q171 -42 252.5 -123t81.5 -204q0 -163 -137 -256.5t-373 -93.5q-252 0 -386 92t-134 258zM217 340q0 -116 100.5 -182t274.5 -66q173 0 273 65.5 t100 180.5q0 108 -95.5 173.5t-318.5 100.5q-180 -32 -257 -101t-77 -171zM276 944q0 -101 79.5 -161.5t258.5 -92.5q308 52 308 256q0 102 -89 165t-235 63q-144 0 -233 -64t-89 -166z" />
<glyph unicode="9" horiz-adv-x="1155" d="M72 844q0 202 128 314t345 112q241 0 370 -155.5t129 -440.5q0 -335 -144 -513.5t-411 -178.5q-105 0 -180.5 16t-161.5 65l41 99q142 -64 291 -64q418 0 430 557q-143 -204 -415 -204q-190 0 -306 107.5t-116 285.5zM203 838q0 -133 89 -210t238 -77q125 0 223.5 63 t149.5 158q-19 185 -110.5 284t-247.5 99q-154 0 -248 -82.5t-94 -234.5z" />
<glyph unicode=":" horiz-adv-x="487" d="M156 84q0 38 24 62t64 24t64 -24t24 -62q0 -39 -24.5 -64.5t-63.5 -25.5t-63.5 25.5t-24.5 64.5zM156 780q0 39 24.5 63.5t63.5 24.5t63.5 -24.5t24.5 -63.5t-24.5 -63.5t-63.5 -24.5t-63.5 24.5t-24.5 63.5z" />
<glyph unicode=";" horiz-adv-x="507" d="M113 -215q59 53 84 103t34 112q-31 6 -50 28.5t-19 53.5q0 39 24.5 63.5t63.5 24.5t63.5 -28t24.5 -70q0 -192 -186 -330zM150 780q0 39 24.5 63.5t63.5 24.5t63.5 -24.5t24.5 -63.5t-24.5 -63.5t-63.5 -24.5t-63.5 24.5t-24.5 63.5z" />
<glyph unicode="&#x3c;" horiz-adv-x="813" d="M115 498l503 415l68 -73l-350 -291q-62 -44 -72 -51l74 -56l348 -288l-65 -72z" />
<glyph unicode="=" horiz-adv-x="931" d="M70 313v95h790v-95h-790zM70 606v92h790v-92h-790z" />
<glyph unicode="&#x3e;" horiz-adv-x="817" d="M145 154l347 288l73 56q-1 1 -71 51l-349 291l66 73l504 -415l-506 -416z" />
<glyph unicode="?" horiz-adv-x="1032" d="M49 1143q264 127 488 127q182 0 289.5 -102t109.5 -273q-1 -144 -116 -239.5t-322 -129.5l4 -161h-115l-20 264q201 19 313.5 85.5t112.5 168.5q0 120 -74.5 190t-202.5 70q-203 0 -426 -109zM369 74q0 34 21 55t56 21t56.5 -21t21.5 -55t-21.5 -57t-56.5 -23t-56 23 t-21 57z" />
<glyph unicode="@" horiz-adv-x="1884" d="M104 420q0 251 111.5 445t309 299.5t448.5 105.5q368 0 587.5 -206.5t219.5 -545.5q-1 -116 -24.5 -210t-60.5 -153.5t-86 -99.5t-98.5 -56.5t-101.5 -16.5q-83 0 -134 35t-65 120q-84 -82 -163 -118.5t-191 -36.5q-165 0 -254.5 105t-89.5 341q0 222 99 329t274 107 q174 0 321 -114v96h121v-643q0 -77 26.5 -110.5t80.5 -33.5q48 0 93.5 25.5t86 77t66 144t26.5 212.5q0 204 -88 358t-254.5 239t-390.5 85q-231 0 -411.5 -97t-281 -275t-100.5 -408q0 -225 95 -396t267.5 -263.5t399.5 -92.5q273 0 492 123l32 -57q-218 -140 -524 -140 q-249 0 -439 102.5t-294.5 290.5t-104.5 433zM631 428q0 -189 67 -268.5t193 -79.5q92 0 162.5 41t152.5 125v387q-139 127 -288 127q-134 0 -210.5 -80t-76.5 -252z" />
<glyph unicode="A" d="M33 0l538 1249h187l536 -1249h-149l-144 330h-675l-142 -330h-151zM379 459h569l-233 542q-38 98 -51 148q-11 -43 -52 -148z" />
<glyph unicode="B" horiz-adv-x="1216" d="M190 0v1249h394q241 0 353 -83.5t112 -258.5q0 -196 -201 -256q139 -32 210.5 -112.5t71.5 -200.5q0 -175 -127 -256.5t-389 -81.5h-424zM330 133h286q189 0 280 50t91 161q0 113 -86 174.5t-248 61.5h-323v-447zM330 709h323q128 0 195 48.5t67 139.5q0 114 -79 167.5 t-252 53.5h-254v-409z" />
<glyph unicode="C" horiz-adv-x="1277" d="M104 625q0 311 154.5 478t443.5 167q117 0 236.5 -28.5t202.5 -78.5l-47 -106q-83 38 -186.5 60t-200.5 22q-225 0 -342 -132t-117 -384q0 -243 115.5 -376.5t324.5 -133.5q266 0 447 129l57 -107q-194 -153 -510 -153q-275 0 -426.5 167.5t-151.5 475.5z" />
<glyph unicode="D" horiz-adv-x="1335" d="M190 0v1249h377q312 0 488 -157.5t176 -452.5q0 -313 -175.5 -476t-488.5 -163h-377zM330 131h237q244 0 383.5 130t139.5 378q0 232 -140 355.5t-383 123.5h-237v-987z" />
<glyph unicode="E" horiz-adv-x="1157" d="M190 0v1249h818v-131h-678v-422h594v-131h-594v-434h696v-131h-836z" />
<glyph unicode="F" horiz-adv-x="1067" d="M190 0v1249h797v-131h-657v-442h575v-131h-575v-545h-140z" />
<glyph unicode="G" horiz-adv-x="1366" d="M104 623q0 305 156 476t438 171q122 0 250 -26.5t230 -74.5l-43 -114q-204 84 -426 84t-341.5 -133.5t-119.5 -380.5t111.5 -379.5t312.5 -132.5q261 0 434 118v273h-465v129h598v-477q-256 -174 -573 -174q-263 0 -412.5 168t-149.5 473z" />
<glyph unicode="H" horiz-adv-x="1406" d="M190 0v1249h140v-544h747v544h140v-1249h-140v573h-747v-573h-140z" />
<glyph unicode="I" horiz-adv-x="520" d="M190 0v1249h140v-1249h-140z" />
<glyph unicode="J" horiz-adv-x="978" d="M49 86l41 113q177 -80 309 -80q124 0 192 76.5t68 216.5v837h140v-837q1 -201 -99 -315.5t-274 -114.5q-181 0 -377 104z" />
<glyph unicode="K" horiz-adv-x="1294" d="M190 0v1249h140v-733l702 733h166v-10l-491 -518l532 -711v-10h-156l-469 618l-284 -301v-317h-140z" />
<glyph unicode="L" horiz-adv-x="1028" d="M190 0v1249h140v-1116h633v-133h-773z" />
<glyph unicode="M" horiz-adv-x="1710" d="M188 0l43 1249h166l430 -985q17 -35 27 -69q2 6 27 69l432 985h166l43 -1249h-142l-32 924v57l-433 -981h-120l-433 981v-53l-32 -928h-142z" />
<glyph unicode="N" horiz-adv-x="1417" d="M190 0v1249h127l770 -1013v34v979h140v-1249h-129l-768 1010v-1010h-140z" />
<glyph unicode="O" horiz-adv-x="1374" d="M104 623q0 311 152.5 479t431.5 168q278 0 430 -168t152 -479q0 -307 -152.5 -474t-429.5 -167q-279 0 -431.5 167t-152.5 474zM248 623q0 -248 113 -379t325 -131q213 0 326.5 131t113.5 379q0 251 -113.5 383.5t-326.5 132.5q-212 0 -325 -132.5t-113 -383.5z" />
<glyph unicode="P" horiz-adv-x="1169" d="M190 0v1249h410q245 0 372.5 -109.5t127.5 -320.5t-126.5 -320.5t-369.5 -109.5h-274v-389h-140zM330 520h274q177 0 268 75.5t91 223.5q0 146 -93 222.5t-270 76.5h-270v-598z" />
<glyph unicode="Q" horiz-adv-x="1363" d="M104 625q0 310 150.5 477.5t427.5 167.5t427.5 -167.5t150.5 -477.5q0 -309 -150.5 -476t-427.5 -167t-427.5 167t-150.5 476zM248 623q0 -249 111.5 -379.5t322.5 -130.5t322.5 130.5t111.5 379.5q0 252 -111.5 384t-322.5 132t-322.5 -132t-111.5 -384zM559 -186l31 80 q132 -81 264.5 -115.5t316.5 -34.5v-115q-357 0 -612 185z" />
<glyph unicode="R" horiz-adv-x="1216" d="M190 0v1249h443q245 0 372.5 -105.5t127.5 -307.5q0 -151 -90.5 -256.5t-243.5 -139.5l364 -428v-12h-153l-359 426h-321v-426h-140zM330 557h319q155 0 248.5 75t93.5 204q0 137 -90.5 209t-265.5 73h-305v-561z" />
<glyph unicode="S" horiz-adv-x="1122" d="M72 158l57 106q113 -73 238.5 -113t234.5 -40q127 0 195.5 50.5t68.5 145.5q0 106 -70 161t-284 122q-59 19 -95.5 31.5t-81.5 32t-71.5 37.5t-55 44.5t-43.5 56.5t-24.5 70t-9.5 88q0 143 105 231.5t282 88.5q233 0 451 -101l-45 -112q-201 88 -408 88 q-109 0 -175.5 -54t-66.5 -128q0 -104 66.5 -148.5t279.5 -114.5q1 -1 2.5 -1.5t2.5 -0.5q104 -35 169.5 -66t117.5 -74t75 -99t23 -133q0 -89 -32 -156.5t-88.5 -107.5t-127.5 -60t-154 -20q-139 0 -283.5 47.5t-252.5 128.5z" />
<glyph unicode="T" horiz-adv-x="1095" d="M27 1118v131h1044v-131h-453v-1118h-141v1118h-450z" />
<glyph unicode="U" horiz-adv-x="1359" d="M160 561v688h139v-688q0 -216 99.5 -331t281.5 -115q184 0 282.5 115t98.5 331v688h139v-690q0 -277 -135.5 -427t-384.5 -150t-384.5 150.5t-135.5 428.5z" />
<glyph unicode="V" horiz-adv-x="1284" d="M33 1249h157l402 -962q32 -88 51 -148q14 53 49 148l408 962h151l-528 -1249h-162z" />
<glyph unicode="W" horiz-adv-x="1800" d="M35 1249h155l277 -962q18 -65 33 -158q6 28 20.5 84t18.5 74l282 962h158l283 -962q25 -90 38 -158q8 53 33 158l277 962h157l-368 -1249h-201l-268 913q-17 61 -29 129q-10 -64 -29 -129l-268 -913h-201z" />
<glyph unicode="X" horiz-adv-x="1206" d="M45 0l447 639l-431 610h172l338 -473q28 -44 31 -51q15 24 33 51l336 473h172l-432 -610l448 -639h-170l-354 510q-7 9 -18 26t-15 23q-4 -8 -15.5 -24t-15.5 -23l-356 -512h-170z" />
<glyph unicode="Y" horiz-adv-x="1146" d="M39 1249h143l355 -602q19 -35 36 -86q14 44 39 86l353 602h145l-467 -819v-430h-139v430z" />
<glyph unicode="Z" horiz-adv-x="1191" d="M106 0v111l807 1011q-118 -4 -182 -4h-590v131h951v-114l-789 -1008q114 4 174 4h625v-131h-996z" />
<glyph unicode="[" horiz-adv-x="722" d="M203 -358v1710h459v-111h-334v-1489h334v-110h-459z" />
<glyph unicode="\" horiz-adv-x="835" d="M125 1360h121l528 -1780h-117z" />
<glyph unicode="]" horiz-adv-x="722" d="M78 -248h332v1489h-332v111h459v-1710h-459v110z" />
<glyph unicode="^" horiz-adv-x="956" d="M109 707l323 634h94l324 -634h-111l-207 417q-34 69 -53 121h-4q-23 -72 -51 -121l-207 -417h-108z" />
<glyph unicode="_" horiz-adv-x="935" d="M119 -117h698v-104h-698v104z" />
<glyph unicode="`" horiz-adv-x="993" d="M297 1354l113 73l219 -278l-45 -45q-90 59 -145 102.5t-140 118.5z" />
<glyph unicode="a" horiz-adv-x="1042" d="M84 274q0 154 99 229t300 75q137 0 281 -3q0 162 -45.5 220.5t-177.5 58.5q-139 0 -336 -49l-23 110q224 62 379 62q193 0 266.5 -92.5t73.5 -311.5v-573h-137v150q-75 -80 -157.5 -124t-194.5 -44q-166 0 -247 71t-81 221zM211 287q0 -98 59.5 -149.5t178.5 -51.5 q175 0 315 178v213l-266 -2q-150 0 -218.5 -42t-68.5 -146z" />
<glyph unicode="b" horiz-adv-x="1148" d="M158 0v1341h135v-530q73 76 171 120t204 44q387 0 387 -494q0 -131 -34 -230t-93 -156t-130 -85t-153 -28q-117 0 -194.5 39.5t-157.5 123.5v-145h-135zM293 279q155 -183 315 -183q63 0 117 21t98.5 64.5t70.5 120.5t26 179q0 379 -291 379q-92 0 -180 -50.5 t-156 -129.5v-401z" />
<glyph unicode="c" horiz-adv-x="1013" d="M94 471q0 239 128.5 372.5t334.5 133.5q196 0 344 -98l-49 -95q-131 76 -293 76q-145 0 -237.5 -101.5t-92.5 -287.5q0 -179 89 -275t233 -96q98 0 175 26.5t161 92.5l53 -90q-94 -82 -185 -114.5t-220 -32.5q-196 0 -318.5 129.5t-122.5 359.5z" />
<glyph unicode="d" horiz-adv-x="1148" d="M94 481q0 259 103 377.5t284 118.5q107 0 205.5 -43t169.5 -117v524h137v-1341h-137v145q-80 -84 -157.5 -123.5t-194.5 -39.5q-82 0 -153 28t-130 85t-93 156t-34 230zM229 481q0 -101 26 -178t70.5 -120.5t98.5 -65t117 -21.5q97 0 169 46.5t146 136.5v401 q-143 180 -336 180q-291 0 -291 -379z" />
<glyph unicode="e" horiz-adv-x="1069" d="M94 471q0 130 35.5 229t98.5 158.5t144 89t179 29.5q195 0 305.5 -117.5t116.5 -349.5q0 -37 -4 -68h-744q7 -181 95.5 -265.5t226.5 -84.5q192 0 350 129l55 -88q-89 -80 -187 -115.5t-222 -35.5q-97 0 -177 28t-141.5 85t-96 152.5t-34.5 223.5zM229 551h621 q-9 158 -87 235.5t-210 77.5q-131 0 -219.5 -76t-104.5 -237z" />
<glyph unicode="f" horiz-adv-x="649" d="M49 842v116h137v93q0 162 70.5 239.5t228.5 77.5q109 0 181 -16l-13 -105q-61 6 -147 6q-100 0 -141 -50t-41 -154v-91h311v-116h-311v-842h-138v842h-137z" />
<glyph unicode="g" horiz-adv-x="1114" d="M94 485q0 492 387 492q104 0 202.5 -43.5t172.5 -114.5v139h137v-819q0 -233 -112 -344.5t-310 -111.5q-241 0 -424 108l41 103q175 -89 369 -89q299 0 299 334v68q-79 -85 -158.5 -124.5t-197.5 -39.5q-84 0 -155.5 25t-128.5 76.5t-89.5 138.5t-32.5 202zM229 485 q0 -90 25.5 -156.5t71 -103.5t99 -54t116.5 -17q97 0 168.5 46.5t146.5 135.5v344q-156 180 -336 180q-137 0 -214 -87t-77 -288z" />
<glyph unicode="h" horiz-adv-x="1130" d="M158 0v1341h135v-550q165 186 385 186q164 0 234.5 -91t70.5 -288v-598h-137v559q0 153 -42.5 218t-162.5 65q-192 0 -348 -199v-643h-135z" />
<glyph unicode="i" horiz-adv-x="456" d="M143 1239q0 37 24.5 58.5t61.5 21.5t61.5 -21.5t24.5 -58.5q0 -38 -24.5 -60t-61.5 -22t-61.5 22t-24.5 60zM160 0v958h137v-958h-137z" />
<glyph unicode="j" horiz-adv-x="456" d="M45 -233q67 32 91 89.5t24 182.5v919h137v-919q0 -169 -49 -258t-172 -123zM141 1239q0 37 24.5 58.5t61.5 21.5t61.5 -21.5t24.5 -58.5q0 -38 -24.5 -60t-61.5 -22t-61.5 22t-24.5 60z" />
<glyph unicode="k" horiz-adv-x="1050" d="M156 0v1341h137v-876l514 493h168v-10l-385 -373l450 -565v-10h-161l-390 475l-196 -190v-285h-137z" />
<glyph unicode="l" horiz-adv-x="448" d="M156 0v1341h137v-1341h-137z" />
<glyph unicode="m" horiz-adv-x="1730" d="M156 0v958h137v-159q158 176 344 176q230 0 281 -199q94 105 182 152t184 47q152 0 225.5 -93t73.5 -286v-596h-135v567q0 148 -40.5 214.5t-143.5 66.5q-158 0 -326 -195q2 -10 2 -26v-627h-137v567q0 147 -42 214t-145 67q-83 0 -166.5 -51t-156.5 -144v-653h-137z" />
<glyph unicode="n" horiz-adv-x="1130" d="M156 0v958h137v-159q162 176 373 176q165 0 241 -91.5t76 -285.5v-598h-137v567q0 152 -42.5 216.5t-162.5 64.5q-196 0 -348 -195v-653h-137z" />
<glyph unicode="o" horiz-adv-x="1138" d="M94 471q0 233 128.5 369.5t346.5 136.5t346.5 -136.5t128.5 -369.5q0 -224 -128.5 -356.5t-348.5 -132.5q-217 0 -345 132.5t-128 356.5zM229 473q0 -172 91 -272.5t247 -100.5q159 0 251.5 100.5t92.5 272.5q0 178 -92 281.5t-250 103.5q-157 0 -248.5 -103.5 t-91.5 -281.5z" />
<glyph unicode="p" horiz-adv-x="1148" d="M158 -338v1296h135v-139q73 70 172 113t203 43q387 0 387 -496q0 -130 -34 -228.5t-93 -155.5t-130 -85t-153 -28q-116 0 -194 39t-158 120v-479h-135zM293 276q155 -180 330 -180q130 0 213.5 93t83.5 292q0 203 -71 291t-206 88q-93 0 -188.5 -50.5t-161.5 -127.5v-406 z" />
<glyph unicode="q" horiz-adv-x="1148" d="M94 481q0 496 387 496q107 0 203.5 -41t171.5 -115v137h137v-1296h-137v477q-79 -81 -157 -119t-195 -38q-82 0 -153 28t-130 85t-93 156t-34 230zM229 481q0 -102 26 -179t70.5 -120.5t98.5 -64.5t117 -21q96 0 169 45.5t146 132.5v410q-68 81 -155 128.5t-181 47.5 q-291 0 -291 -379z" />
<glyph unicode="r" horiz-adv-x="755" d="M156 0v958h137v-200q35 97 117.5 157t181.5 60q68 0 123 -6l-10 -133q-49 4 -117 4q-101 0 -178.5 -67t-116.5 -193v-580h-137z" />
<glyph unicode="s" horiz-adv-x="899" d="M59 131l60 96q159 -131 356 -131q94 0 150.5 36t56.5 112q0 26 -6 46.5t-13 36t-28 30.5t-36 24t-53 23t-62.5 22t-80.5 25q-166 53 -231.5 107t-65.5 161q0 124 83 192t235 68q165 0 352 -86l-37 -102q-181 75 -317 75q-91 0 -140 -37t-49 -106q0 -43 31 -73.5 t67.5 -45.5t126.5 -44q10 -3 15 -5q66 -22 110 -38.5t85.5 -37.5t65.5 -42.5t43 -50t26.5 -62.5t7.5 -78q0 -128 -91.5 -196t-242.5 -68q-111 0 -222.5 39.5t-195.5 109.5z" />
<glyph unicode="t" horiz-adv-x="720" d="M41 842v116h149v250h136v-250h301v-116h-301v-539q0 -106 41.5 -144t138.5 -38q69 0 147 12l17 -102q-123 -37 -205 -37q-147 0 -211 72t-64 233v543h-149z" />
<glyph unicode="u" horiz-adv-x="1126" d="M141 365v593h135v-565q0 -149 49 -218t169 -69q92 0 181.5 56.5t155.5 146.5v649h138v-958h-138v160q-175 -178 -378 -178q-163 0 -237.5 93.5t-74.5 289.5z" />
<glyph unicode="v" horiz-adv-x="1030" d="M20 958h142l299 -661q26 -55 53 -150q6 16 17 47t20 56t18 47l301 661h140l-420 -958h-150z" />
<glyph unicode="w" horiz-adv-x="1464" d="M20 958h134l233 -677q25 -73 39 -134q20 82 37 134l205 677h131l202 -677q8 -27 21.5 -77t15.5 -57q6 24 20.5 72.5t18.5 61.5l234 677h133l-324 -958h-162l-225 733l-225 -733h-164z" />
<glyph unicode="x" horiz-adv-x="958" d="M27 0l356 483l-348 475h155l224 -301q41 -48 65 -90q22 38 66 90l223 301h156l-349 -475l357 -483h-152l-235 309q-44 52 -66 90q-24 -42 -65 -90l-236 -309h-151z" />
<glyph unicode="y" horiz-adv-x="1013" d="M8 956h144l276 -645q53 -121 64 -151q37 71 70 140t73.5 163t60 141.5t73.5 179.5t71 172h151q-234 -558 -356 -802q-86 -166 -190.5 -278.5t-239.5 -170.5l-49 117q154 80 252 205z" />
<glyph unicode="z" horiz-adv-x="1003" d="M80 0v92l653 756q-123 -6 -172 -6h-469v116h815v-90l-641 -757q98 4 174 4h484v-115h-844z" />
<glyph unicode="{" horiz-adv-x="774" d="M106 455v96q148 3 198 62t50 227v153q0 164 83.5 248.5t269.5 101.5l10 -96q-127 -21 -181.5 -83t-54.5 -171v-153q0 -169 -47 -243.5t-162 -94.5q115 -19 162 -93t47 -243v-154q0 -110 54.5 -171.5t181.5 -84.5l-10 -96q-186 17 -269.5 102t-83.5 250v154 q0 168 -49.5 226.5t-198.5 62.5z" />
<glyph unicode="|" horiz-adv-x="587" d="M236 -410v1751h116v-1751h-116z" />
<glyph unicode="}" horiz-adv-x="774" d="M72 -244q127 23 181 84.5t54 171.5v152q0 170 47 244.5t162 93.5q-115 20 -162 94.5t-47 243.5v153q0 109 -54 171t-181 83l12 96q184 -17 268 -102t84 -248v-153q0 -170 49 -228t197 -61v-96q-148 -4 -197 -62.5t-49 -228.5v-152q0 -164 -84 -249.5t-268 -102.5z" />
<glyph unicode="~" horiz-adv-x="870" d="M68 502q60 116 132.5 145.5t164.5 -14.5l174 -80q61 -30 106 -9.5t88 101.5l64 -41q-61 -118 -134.5 -150t-162.5 11l-174 82q-61 29 -105.5 11t-89.5 -95z" />
<glyph unicode="&#xa1;" horiz-adv-x="421" d="M121 901q0 34 20.5 56t55.5 22t56 -22t21 -56t-21 -56t-56 -22t-55.5 22t-20.5 56zM123 -276l18 856h111l18 -856h-147z" />
<glyph unicode="&#xa2;" horiz-adv-x="1052" d="M104 543q0 114 24 207.5t64 157.5t95.5 109.5t116.5 68t128 28.5v135h99v-135q184 -13 317 -106l-47 -90q-124 83 -307 83q-68 0 -128.5 -24t-112.5 -75t-82.5 -143t-30.5 -216q0 -97 20 -175t52.5 -128t78 -83t93 -47t100.5 -14q110 0 194 29.5t156 97.5l53 -82 q-72 -75 -157 -112t-199 -45v-119h-99v119q-84 5 -157 37t-135.5 95.5t-99 173t-36.5 253.5z" />
<glyph unicode="&#xa3;" horiz-adv-x="1110" d="M74 0v100l176 13l24 321h-192v96h199l6 72q21 274 127.5 397t298.5 123q209 0 356 -108l-47 -90q-131 88 -293 88q-138 0 -214 -94t-93 -316l-6 -72h426v-96h-434l-25 -319h641v-115h-950z" />
<glyph unicode="&#xa5;" horiz-adv-x="1052" d="M33 1112h145l316 -506q26 -55 32 -69q6 13 17.5 35t17.5 34l313 506h146l-381 -629h274v-80h-317v-135h317v-80h-317v-188h-139v188h-307v80h307v135h-307v80h264z" />
<glyph unicode="&#xa6;" horiz-adv-x="587" d="M236 281h116v-691h-116v691zM236 651v690h116v-690h-116z" />
<glyph unicode="&#xa7;" horiz-adv-x="1196" d="M141 637q0 64 35 112t117 107q-68 62 -68 162q0 116 85 184t233 68q95 0 198.5 -23.5t186.5 -62.5l-37 -99q-73 37 -167.5 59.5t-170.5 22.5q-95 0 -147 -39t-52 -108q0 -67 58 -103.5t227 -89.5q108 -34 178 -64t121 -66.5t73.5 -79.5t22.5 -99q0 -64 -34 -112 t-115 -107q65 -62 65 -160q0 -118 -85 -188t-236 -70q-112 0 -237.5 44t-205.5 116l45 94q77 -67 187.5 -107t204.5 -40t146 39.5t52 109.5q0 66 -58 102t-226 89q-217 70 -306.5 135.5t-89.5 173.5zM264 653q0 -33 17 -60.5t42.5 -48t77.5 -43t98 -39t128 -42.5 q118 -37 188 -74q56 51 76 85t20 73q0 27 -9.5 50t-34 43t-50 35.5t-73.5 34.5t-87 32.5t-108 35.5q-137 46 -189 76q-56 -53 -76 -86t-20 -72z" />
<glyph unicode="&#xa8;" horiz-adv-x="993" d="M223 1247q0 38 25.5 62t60.5 24q39 0 63.5 -23.5t24.5 -62.5t-24.5 -61.5t-63.5 -22.5q-35 0 -60.5 23t-25.5 61zM596 1247q0 39 24.5 62.5t63.5 23.5q36 0 61 -23.5t25 -62.5t-24.5 -61.5t-61.5 -22.5q-39 0 -63.5 22.5t-24.5 61.5z" />
<glyph unicode="&#xa9;" horiz-adv-x="1519" d="M119 625q0 175 85.5 323.5t233.5 235t324 86.5q175 0 322.5 -86.5t233 -235t85.5 -323.5q0 -176 -85.5 -324t-233 -233.5t-322.5 -85.5q-176 0 -324 85.5t-233.5 233.5t-85.5 324zM170 625q0 -161 79 -297t215.5 -214.5t297.5 -78.5q160 0 295.5 78.5t215 214.5t79.5 297 q0 159 -79.5 295.5t-215.5 216.5t-295 80q-161 0 -297.5 -80t-215.5 -216t-79 -296zM416 614q0 174 94.5 277.5t251.5 103.5q160 0 280 -90l-38 -67q-103 67 -232 67q-116 0 -185 -78.5t-69 -212.5q0 -127 73.5 -202.5t188.5 -75.5q138 0 250 104l43 -63 q-126 -129 -303 -129q-153 0 -253.5 101.5t-100.5 264.5z" />
<glyph unicode="&#xaa;" horiz-adv-x="780" d="M82 774q0 108 70 159.5t215 51.5q132 0 202 -2q0 112 -34.5 153.5t-128.5 41.5q-103 0 -238 -33l-18 82q151 43 272 43q140 0 196 -63t56 -224v-410h-105v107q-109 -121 -254 -121q-233 0 -233 215zM180 782q0 -70 38.5 -104.5t121.5 -34.5q124 0 229 125v141h-192 q-104 0 -150.5 -29t-46.5 -98z" />
<glyph unicode="&#xab;" horiz-adv-x="1062" d="M100 498l408 415l76 -69l-265 -275q-36 -39 -79 -73q51 -40 82 -74l262 -272l-74 -68zM440 498l406 415l76 -69l-263 -275q-50 -50 -79 -73q39 -31 82 -74l260 -272l-74 -68z" />
<glyph unicode="&#xad;" horiz-adv-x="798" d="M135 516v123h529v-123h-529z" />
<glyph unicode="&#xae;" horiz-adv-x="1519" d="M119 625q0 175 85.5 323.5t233.5 235t324 86.5q175 0 322.5 -86.5t233 -235t85.5 -323.5q0 -176 -85.5 -324t-233 -233.5t-322.5 -85.5q-176 0 -324 85.5t-233.5 233.5t-85.5 324zM170 625q0 -161 79 -297t215.5 -214.5t297.5 -78.5q160 0 295.5 78.5t215 214.5t79.5 297 q0 159 -79.5 295.5t-215.5 216.5t-295 80q-161 0 -297.5 -80t-215.5 -216t-79 -296zM498 264v721h268q145 0 219 -59t74 -172q0 -85 -43.5 -137t-122.5 -62q55 -24 102 -99t95 -192h-111q-109 256 -186 256h-201v-256h-94zM598 600h207q76 0 116 39.5t40 112.5t-50.5 112 t-144.5 39h-168v-303z" />
<glyph unicode="&#xaf;" horiz-adv-x="993" d="M258 1176v120h477v-120h-477z" />
<glyph unicode="&#xb0;" horiz-adv-x="684" d="M109 1032q0 107 63.5 172.5t169.5 65.5t169.5 -65.5t63.5 -172.5q0 -101 -64.5 -163t-170.5 -62q-104 0 -167.5 62t-63.5 163zM193 1032q0 -64 40.5 -102.5t106.5 -38.5q69 0 109 38t40 103q0 71 -40 113.5t-107 42.5t-108 -42.5t-41 -113.5z" />
<glyph unicode="&#xb1;" horiz-adv-x="952" d="M68 127v94h806v-94h-806zM70 604v96h356v291h94v-291h359v-96h-359v-291h-94v291h-356z" />
<glyph unicode="&#xb2;" horiz-adv-x="696" d="M57 1397q166 78 303 78q117 0 182.5 -63t65.5 -177q0 -28 -6.5 -54.5t-22 -54t-30.5 -50t-44 -51.5t-50 -48.5t-60 -51t-63 -50t-71 -53.5t-71 -54q62 4 89 4h348v-86h-566v74q42 35 110.5 89.5t108 86t89 76.5t75.5 77.5t45 71t19 74.5q0 75 -41.5 115.5t-118.5 40.5 q-122 0 -260 -66z" />
<glyph unicode="&#xb3;" horiz-adv-x="694" d="M37 893l31 70q129 -66 280 -66q88 0 135 36.5t47 104.5q0 73 -52 111.5t-152 38.5h-131v82h131q184 0 184 121q0 67 -44 104t-122 37q-127 0 -264 -62l-27 70q150 72 299 72q116 0 182 -56t66 -155q1 -65 -35 -109.5t-98 -62.5q158 -47 158 -193q0 -105 -72 -162 t-203 -57q-176 0 -313 76z" />
<glyph unicode="&#xb4;" horiz-adv-x="993" d="M360 1130l222 279l110 -74l-2 -28q-63 -57 -93 -83t-79.5 -63t-111.5 -76z" />
<glyph unicode="&#xb6;" horiz-adv-x="1097" d="M109 836q0 226 115 319.5t388 93.5h389v-108l-221 -13v-1128h-129v432h-39q-273 0 -388 92t-115 312z" />
<glyph unicode="&#xb7;" horiz-adv-x="548" d="M172 580q0 39 24.5 63.5t63.5 24.5t63.5 -24.5t24.5 -63.5t-24.5 -63.5t-63.5 -24.5t-63.5 24.5t-24.5 63.5z" />
<glyph unicode="&#xb8;" horiz-adv-x="993" d="M322 -387l18 82q87 -17 139 -17q129 0 129 82q0 52 -32 69t-119 17h-68l41 189h82l-12 -109q114 -1 159.5 -38t45.5 -128q0 -85 -53 -131.5t-146 -46.5q-77 0 -184 31z" />
<glyph unicode="&#xb9;" horiz-adv-x="641" d="M61 1341q145 54 258 113h78v-690h197v-86h-512v86h219v577q-94 -35 -219 -65z" />
<glyph unicode="&#xba;" horiz-adv-x="888" d="M104 909q0 172 88.5 266.5t251.5 94.5t251.5 -94.5t88.5 -266.5q0 -167 -89.5 -258.5t-252.5 -91.5q-161 0 -249.5 91.5t-88.5 258.5zM209 909q0 -129 59.5 -193.5t173.5 -64.5q117 0 178.5 64.5t61.5 193.5q0 134 -61.5 202.5t-176.5 68.5t-175 -68.5t-60 -202.5z" />
<glyph unicode="&#xbb;" horiz-adv-x="1062" d="M115 150l260 272q39 40 80 74q-8 8 -25 22.5t-29.5 26.5t-23.5 24l-262 275l71 69l408 -415l-410 -416zM453 150l260 272q43 43 82 74q-51 44 -80 73l-262 275l71 69l408 -415l-410 -416z" />
<glyph unicode="&#xbc;" horiz-adv-x="1787" d="M61 1137q152 56 258 112h78v-690h197v-86h-512v86h219v578q-102 -38 -219 -66zM463 0l735 1249h90l-735 -1249h-90zM954 246l463 530h96v-524h127v-80h-127v-172h-96v172h-461zM1053 252h364v410q-26 -37 -51 -64l-238 -264q-54 -61 -75 -82z" />
<glyph unicode="&#xbd;" horiz-adv-x="1800" d="M61 1137q152 56 258 112h78v-690h197v-86h-512v86h219v578q-102 -38 -219 -66zM463 0l735 1249h90l-735 -1249h-90zM1098 709q161 79 303 79q117 0 182.5 -63t65.5 -176q0 -28 -6.5 -54.5t-22 -54t-30.5 -50t-44 -51.5t-50 -48.5t-60 -51t-63 -50t-71 -53.5t-71 -54 q31 2 88 2h348v-84h-565v74q42 34 110.5 89t107.5 86.5t88.5 76.5t75.5 77.5t45 71t19 74.5q0 75 -41.5 115.5t-117.5 40.5q-123 0 -261 -66z" />
<glyph unicode="&#xbe;" horiz-adv-x="1765" d="M37 553l31 70q133 -68 280 -68q88 0 135 36.5t47 104.5q0 150 -204 150h-131v82h131q184 0 184 121q0 68 -43.5 104.5t-122.5 36.5q-132 0 -264 -60l-27 68q148 74 299 74q116 0 182 -56.5t66 -156.5q1 -65 -34.5 -108.5t-98.5 -63.5q158 -47 158 -191q0 -106 -72 -163.5 t-203 -57.5q-77 0 -161.5 20.5t-151.5 57.5zM471 0l733 1249h92l-735 -1249h-90zM950 246l465 530h94v-522h127v-82h-127v-172h-94v172h-463zM1051 254h364v408q-19 -24 -51 -62l-240 -264q-47 -56 -73 -82z" />
<glyph unicode="&#xbf;" horiz-adv-x="1032" d="M113 78q1 144 116 239t322 129l-4 162h115l20 -264q-201 -19 -313.5 -85.5t-112.5 -168.5q0 -120 74.5 -190t201.5 -70q203 0 426 109l41 -109q-264 -127 -487 -127q-182 0 -289.5 102t-109.5 273zM526 899q0 35 20.5 57.5t55.5 22.5t56.5 -23t21.5 -57t-21.5 -55 t-56.5 -21t-55.5 21t-20.5 55z" />
<glyph unicode="&#xc0;" d="M33 0l538 1249h187l536 -1249h-149l-144 330h-675l-142 -330h-151zM379 459h569l-233 542q-38 98 -51 148q-11 -43 -52 -148zM408 1579l112 74l219 -264l-45 -46q-88 49 -142 89t-142 118z" />
<glyph unicode="&#xc1;" d="M33 0l538 1249h187l536 -1249h-149l-144 330h-675l-142 -330h-151zM379 459h569l-233 542q-38 98 -51 148q-11 -43 -52 -148zM586 1403l221 266l111 -74l-3 -28q-64 -57 -94.5 -82.5t-79.5 -59t-110 -67.5z" />
<glyph unicode="&#xc2;" d="M33 0l538 1249h187l536 -1249h-149l-144 330h-675l-142 -330h-151zM369 1401l243 229h105l246 -229l-56 -55l-241 174l-242 -174zM379 459h569l-233 542q-38 98 -51 148q-11 -43 -52 -148z" />
<glyph unicode="&#xc3;" d="M33 0l538 1249h187l536 -1249h-149l-144 330h-675l-142 -330h-151zM354 1430q15 58 44 96.5t66 54t79.5 13t85.5 -24.5l112 -53q61 -28 97 -10.5t63 81.5l76 -20q-15 -60 -45 -100.5t-68 -58t-81 -16t-85 22.5l-112 58q-59 28 -95 12t-61 -76zM379 459h569l-233 542 q-38 98 -51 148q-11 -43 -52 -148z" />
<glyph unicode="&#xc4;" d="M33 0l538 1249h187l536 -1249h-149l-144 330h-675l-142 -330h-151zM379 459h569l-233 542q-38 98 -51 148q-11 -43 -52 -148zM391 1491q0 38 25.5 62t60.5 24q39 0 63.5 -23.5t24.5 -62.5t-24.5 -61.5t-63.5 -22.5q-35 0 -60.5 23t-25.5 61zM764 1491q0 39 25 62.5 t63 23.5q37 0 62.5 -23.5t25.5 -62.5q0 -38 -25.5 -61t-62.5 -23q-38 0 -63 22.5t-25 61.5z" />
<glyph unicode="&#xc5;" d="M33 0l538 1249h187l536 -1249h-149l-144 330h-675l-142 -330h-151zM379 459h569l-233 542q-38 98 -51 148q-11 -43 -52 -148zM475 1530q0 87 53 139.5t138 52.5t137.5 -52.5t52.5 -139.5q0 -80 -53 -130t-139 -50q-83 0 -136 50.5t-53 129.5zM559 1530q0 -44 29.5 -71 t75.5 -27q49 0 78.5 27t29.5 71q0 51 -29 80.5t-77 29.5t-77.5 -30t-29.5 -80z" />
<glyph unicode="&#xc6;" horiz-adv-x="1935" d="M33 0l868 1249h871v-131h-678v-422h594v-131h-594v-434h696v-131h-836v326h-532l-225 -326h-164zM510 457h444v645z" />
<glyph unicode="&#xc7;" horiz-adv-x="1277" d="M104 625q0 311 154.5 478t443.5 167q117 0 236.5 -28.5t202.5 -78.5l-47 -106q-83 38 -186.5 60t-200.5 22q-225 0 -342 -132t-117 -384q0 -243 115.5 -376.5t324.5 -133.5q266 0 447 129l57 -107q-194 -153 -510 -153h-20l-5 -56q113 -2 158 -38.5t45 -127.5 q0 -85 -52.5 -131.5t-145.5 -46.5q-78 0 -185 31l19 82q87 -17 139 -17q129 0 129 82q0 52 -32.5 69t-119.5 17h-67l30 142q-226 32 -348.5 196.5t-122.5 440.5z" />
<glyph unicode="&#xc8;" horiz-adv-x="1157" d="M190 0v1249h818v-131h-678v-422h594v-131h-594v-434h696v-131h-836zM346 1579l113 74l219 -264l-45 -46q-89 49 -143.5 89.5t-141.5 117.5z" />
<glyph unicode="&#xc9;" horiz-adv-x="1157" d="M190 0v1249h818v-131h-678v-422h594v-131h-594v-434h696v-131h-836zM483 1403l222 266l110 -74l-2 -28q-90 -80 -143.5 -120.5t-141.5 -88.5z" />
<glyph unicode="&#xca;" horiz-adv-x="1157" d="M190 0v1249h818v-131h-678v-422h594v-131h-594v-434h696v-131h-836zM285 1409l245 227h105l246 -227l-56 -57l-241 174l-244 -174z" />
<glyph unicode="&#xcb;" horiz-adv-x="1157" d="M190 0v1249h818v-131h-678v-422h594v-131h-594v-434h696v-131h-836zM317 1491q0 39 25 62.5t61 23.5q39 0 62.5 -23.5t23.5 -62.5t-23.5 -61.5t-62.5 -22.5q-37 0 -61.5 22.5t-24.5 61.5zM690 1491q0 39 24.5 62.5t61.5 23.5t62.5 -23.5t25.5 -62.5q0 -38 -25.5 -61 t-62.5 -23q-38 0 -62 22.5t-24 61.5z" />
<glyph unicode="&#xcc;" horiz-adv-x="520" d="M4 1579l111 74l221 -264l-45 -46q-91 49 -146 90t-139 117zM190 0v1249h140v-1249h-140z" />
<glyph unicode="&#xcd;" horiz-adv-x="520" d="M180 1403l223 266l111 -74l-2 -28q-90 -80 -144 -120.5t-143 -88.5zM190 0v1249h140v-1249h-140z" />
<glyph unicode="&#xce;" horiz-adv-x="520" d="M-37 1401l246 229h102l248 -229l-55 -55l-244 174l-242 -174zM190 0v1249h140v-1249h-140z" />
<glyph unicode="&#xcf;" horiz-adv-x="520" d="M-12 1491q0 39 25 62.5t61 23.5q39 0 62.5 -23.5t23.5 -62.5t-23.5 -61.5t-62.5 -22.5q-37 0 -61.5 22.5t-24.5 61.5zM190 0v1249h140v-1249h-140zM360 1491q0 39 25 62.5t64 23.5q36 0 61 -23.5t25 -62.5t-24.5 -61.5t-61.5 -22.5q-39 0 -64 22.5t-25 61.5z" />
<glyph unicode="&#xd0;" horiz-adv-x="1337" d="M31 559v115h145v575h377q313 0 489.5 -157.5t176.5 -452.5q0 -313 -175.5 -476t-490.5 -163h-377v559h-145zM317 131h236q245 0 383.5 129.5t138.5 378.5q0 232 -139 355.5t-383 123.5h-236v-444h279v-115h-279v-428z" />
<glyph unicode="&#xd1;" horiz-adv-x="1417" d="M190 0v1249h127l770 -1013v34v979h140v-1249h-129l-768 1010v-1010h-140zM397 1430q15 58 44 96.5t66 54t79.5 13t85.5 -24.5l112 -53q60 -28 97.5 -10.5t62.5 81.5l76 -20q-15 -60 -45 -100.5t-68 -58t-80.5 -16t-83.5 22.5l-112 58q-59 28 -96 12t-62 -76z" />
<glyph unicode="&#xd2;" horiz-adv-x="1374" d="M104 623q0 311 152 479t430 168q279 0 431.5 -168t152.5 -479q0 -307 -152.5 -474t-431.5 -167q-277 0 -429.5 167t-152.5 474zM248 623q0 -248 113 -379t325 -131q213 0 326.5 131t113.5 379q0 251 -113.5 383.5t-326.5 132.5q-212 0 -325 -132.5t-113 -383.5zM430 1579 l111 74l221 -264l-45 -46q-91 49 -146 90t-139 117z" />
<glyph unicode="&#xd3;" horiz-adv-x="1374" d="M104 623q0 311 152 479t430 168q279 0 431.5 -168t152.5 -479q0 -307 -152.5 -474t-431.5 -167q-277 0 -429.5 167t-152.5 474zM248 623q0 -248 113 -379t325 -131q213 0 326.5 131t113.5 379q0 251 -113.5 383.5t-326.5 132.5q-212 0 -325 -132.5t-113 -383.5zM608 1403 l221 266l111 -74l-2 -28q-90 -80 -143.5 -120.5t-141.5 -88.5z" />
<glyph unicode="&#xd4;" horiz-adv-x="1374" d="M104 623q0 311 152.5 479t431.5 168q278 0 430 -168t152 -479q0 -307 -152.5 -474t-429.5 -167q-279 0 -431.5 167t-152.5 474zM248 623q0 -248 113 -379t325 -131q213 0 326.5 131t113.5 379q0 251 -113.5 383.5t-326.5 132.5q-212 0 -325 -132.5t-113 -383.5zM389 1401 l246 229h104l246 -229l-55 -55l-242 174l-244 -174z" />
<glyph unicode="&#xd5;" horiz-adv-x="1374" d="M104 623q0 311 152.5 479t431.5 168q278 0 430 -168t152 -479q0 -307 -152.5 -474t-429.5 -167q-279 0 -431.5 167t-152.5 474zM248 623q0 -248 113 -379t325 -131q213 0 326.5 131t113.5 379q0 251 -113.5 383.5t-326.5 132.5q-212 0 -325 -132.5t-113 -383.5zM377 1430 q15 58 44 96.5t65.5 54t79 13t85.5 -24.5l113 -53q61 -28 97 -10.5t63 81.5l75 -20q-20 -79 -66 -124.5t-100 -49t-112 21.5l-113 58q-59 28 -94.5 12t-60.5 -76z" />
<glyph unicode="&#xd6;" horiz-adv-x="1374" d="M104 623q0 311 152.5 479t431.5 168q278 0 430 -168t152 -479q0 -307 -152.5 -474t-429.5 -167q-279 0 -431.5 167t-152.5 474zM248 623q0 -248 113 -379t325 -131q213 0 326.5 131t113.5 379q0 251 -113.5 383.5t-326.5 132.5q-212 0 -325 -132.5t-113 -383.5zM414 1491 q0 38 25.5 62t60.5 24q39 0 63.5 -23.5t24.5 -62.5t-24.5 -61.5t-63.5 -22.5q-35 0 -60.5 23t-25.5 61zM786 1491q0 39 24.5 62.5t63.5 23.5q36 0 61.5 -23.5t25.5 -62.5q0 -38 -25 -61t-62 -23q-39 0 -63.5 22.5t-24.5 61.5z" />
<glyph unicode="&#xd7;" horiz-adv-x="946" d="M137 238l266 266l-260 260l76 76l260 -258l258 256l74 -74l-256 -258l266 -266l-76 -76l-266 266l-268 -266z" />
<glyph unicode="&#xd8;" horiz-adv-x="1374" d="M92 623q0 311 152 479t430 168q248 0 395 -135l111 127l61 -58l-115 -131q129 -167 129 -450q0 -307 -152 -474t-429 -167q-240 0 -391 129l-107 -123l-61 57l110 125q-133 165 -133 453zM233 623q0 -211 89 -342l655 749q-112 109 -303 109q-212 0 -326.5 -132.5 t-114.5 -383.5zM375 215q111 -102 299 -102q212 0 326 131t114 379q0 211 -84 342z" />
<glyph unicode="&#xd9;" horiz-adv-x="1357" d="M160 561v688h139v-688q0 -216 99.5 -331t281.5 -115q184 0 282.5 115t98.5 331v688h139v-690q0 -277 -135.5 -427t-384.5 -150t-384.5 150.5t-135.5 428.5zM430 1579l111 74l221 -264l-45 -46q-91 49 -146 90t-139 117z" />
<glyph unicode="&#xda;" horiz-adv-x="1357" d="M160 561v688h139v-688q0 -216 99.5 -331t281.5 -115q184 0 282.5 115t98.5 331v688h139v-690q0 -277 -135.5 -427t-384.5 -150t-384.5 150.5t-135.5 428.5zM580 1403l221 266l110 -74l-2 -28q-88 -80 -141.5 -120.5t-142.5 -88.5z" />
<glyph unicode="&#xdb;" horiz-adv-x="1359" d="M160 561v688h139v-688q0 -216 99.5 -331t281.5 -115q184 0 282.5 115t98.5 331v688h139v-690q0 -277 -135.5 -427t-384.5 -150t-384.5 150.5t-135.5 428.5zM383 1401l244 229h104l246 -229l-55 -55l-242 174l-242 -174z" />
<glyph unicode="&#xdc;" horiz-adv-x="1359" d="M160 561v688h139v-688q0 -216 99.5 -331t281.5 -115q184 0 282.5 115t98.5 331v688h139v-690q0 -277 -135.5 -427t-384.5 -150t-384.5 150.5t-135.5 428.5zM406 1491q0 38 25.5 62t60.5 24q39 0 63.5 -23.5t24.5 -62.5t-24.5 -61.5t-63.5 -22.5q-35 0 -60.5 23t-25.5 61z M778 1491q0 39 25 62.5t63 23.5q37 0 62.5 -23.5t25.5 -62.5q0 -38 -25.5 -61t-62.5 -23q-38 0 -63 22.5t-25 61.5z" />
<glyph unicode="&#xdd;" horiz-adv-x="1146" d="M39 1249h143l355 -602q19 -35 36 -86q14 44 39 86l353 602h145l-467 -819v-430h-139v430zM494 1403l223 266l110 -74l-2 -28q-64 -57 -94.5 -82.5t-80 -59t-111.5 -67.5z" />
<glyph unicode="&#xde;" horiz-adv-x="1169" d="M190 0v1249h140v-219h270q256 0 378 -103.5t122 -320.5q0 -215 -121 -315.5t-375 -100.5h-274v-190h-140zM330 305h274q183 0 271 74t88 227t-89 227t-276 74h-268v-602z" />
<glyph unicode="&#xdf;" horiz-adv-x="1187" d="M-8 858v100h172q29 163 155.5 260t313.5 97q170 0 279.5 -91t109.5 -237q0 -113 -61 -190.5t-164 -114.5q138 -36 213 -128t75 -230q0 -154 -106 -248t-279 -94q-125 0 -245 30l14 103q113 -25 215 -25q123 0 197.5 68.5t74.5 179.5q0 131 -95.5 207t-254.5 76h-117v104 h117q130 0 207.5 68t77.5 182q0 102 -71 163.5t-185 61.5q-156 0 -250 -91t-94 -243v-866h-137v846z" />
<glyph unicode="&#xe0;" horiz-adv-x="1042" d="M84 274q0 154 99 229t300 75q137 0 281 -3q0 162 -45.5 220.5t-177.5 58.5q-139 0 -336 -49l-23 110q224 62 379 62q193 0 266.5 -92.5t73.5 -311.5v-573h-137v150q-75 -80 -157.5 -124t-194.5 -44q-166 0 -247 71t-81 221zM211 287q0 -98 59.5 -149.5t178.5 -51.5 q175 0 315 178v213l-266 -2q-150 0 -218.5 -42t-68.5 -146zM322 1354l112 73l219 -278l-45 -45q-89 59 -143.5 102t-140.5 119z" />
<glyph unicode="&#xe1;" horiz-adv-x="1042" d="M84 274q0 154 99 229t300 75q137 0 281 -3q0 162 -45.5 220.5t-177.5 58.5q-139 0 -336 -49l-23 110q224 62 379 62q193 0 266.5 -92.5t73.5 -311.5v-573h-137v150q-75 -80 -157.5 -124t-194.5 -44q-166 0 -247 71t-81 221zM211 287q0 -98 59.5 -149.5t178.5 -51.5 q175 0 315 178v213l-266 -2q-150 0 -218.5 -42t-68.5 -146zM385 1130l221 279l111 -74l-2 -28q-88 -80 -142 -122.5t-143 -99.5z" />
<glyph unicode="&#xe2;" horiz-adv-x="1042" d="M84 274q0 154 99 229t300 75q137 0 281 -3q0 162 -45.5 220.5t-177.5 58.5q-139 0 -336 -49l-23 110q224 62 379 62q193 0 266.5 -92.5t73.5 -311.5v-573h-137v150q-75 -80 -157.5 -124t-194.5 -44q-166 0 -247 71t-81 221zM211 287q0 -98 59.5 -149.5t178.5 -51.5 q175 0 315 178v213l-266 -2q-150 0 -218.5 -42t-68.5 -146zM223 1149l246 242h104l246 -242l-55 -55q-22 17 -108 82.5t-134 103.5q-47 -37 -127.5 -98t-115.5 -88z" />
<glyph unicode="&#xe3;" horiz-adv-x="1042" d="M84 274q0 154 99 229t300 75q137 0 281 -3q0 162 -45.5 220.5t-177.5 58.5q-139 0 -336 -49l-23 110q224 62 379 62q193 0 266.5 -92.5t73.5 -311.5v-573h-137v150q-75 -80 -157.5 -124t-194.5 -44q-166 0 -247 71t-81 221zM211 287q0 -98 59.5 -149.5t178.5 -51.5 q175 0 315 178v213l-266 -2q-150 0 -218.5 -42t-68.5 -146zM211 1202q15 58 44 96.5t65.5 54t78.5 13.5t86 -23l113 -53q60 -28 97.5 -11t62.5 81l76 -21q-20 -79 -66 -124.5t-100 -48.5t-111 22l-113 57q-59 28 -95.5 13t-61.5 -76z" />
<glyph unicode="&#xe4;" horiz-adv-x="1042" d="M84 274q0 154 99 229t300 75q137 0 281 -3q0 162 -45.5 220.5t-177.5 58.5q-139 0 -336 -49l-23 110q224 62 379 62q193 0 266.5 -92.5t73.5 -311.5v-573h-137v150q-75 -80 -157.5 -124t-194.5 -44q-166 0 -247 71t-81 221zM211 287q0 -98 59.5 -149.5t178.5 -51.5 q175 0 315 178v213l-266 -2q-150 0 -218.5 -42t-68.5 -146zM248 1247q0 38 25.5 62t60.5 24q39 0 63.5 -23.5t24.5 -62.5t-24.5 -61.5t-63.5 -22.5q-35 0 -60.5 23t-25.5 61zM621 1247q0 39 24.5 62.5t63.5 23.5q36 0 61 -23.5t25 -62.5t-24.5 -61.5t-61.5 -22.5 q-39 0 -63.5 22.5t-24.5 61.5z" />
<glyph unicode="&#xe5;" horiz-adv-x="1042" d="M84 274q0 154 99 229t300 75q137 0 281 -3q0 162 -45.5 220.5t-177.5 58.5q-139 0 -336 -49l-23 110q224 62 379 62q193 0 266.5 -92.5t73.5 -311.5v-573h-137v150q-75 -80 -157.5 -124t-194.5 -44q-166 0 -247 71t-81 221zM211 287q0 -98 59.5 -149.5t178.5 -51.5 q175 0 315 178v213l-266 -2q-150 0 -218.5 -42t-68.5 -146zM332 1262q0 86 52.5 138t137.5 52q84 0 137.5 -52.5t53.5 -137.5q0 -80 -54 -131.5t-139 -51.5q-83 0 -135.5 51.5t-52.5 131.5zM416 1262q0 -46 28.5 -72.5t75.5 -26.5q50 0 79.5 26.5t29.5 72.5q0 50 -29.5 80 t-77.5 30q-49 0 -77.5 -29.5t-28.5 -80.5z" />
<glyph unicode="&#xe6;" horiz-adv-x="1738" d="M84 281q0 130 100.5 201t298.5 71q56 0 136.5 -1t132.5 -1q1 85 -7 139.5t-31 95t-65 58.5t-108 18q-147 0 -336 -47l-23 100q215 62 379 62q216 0 281 -168q121 168 366 168q195 0 305.5 -117.5t116.5 -349.5q0 -37 -4 -68h-743q7 -181 95 -265.5t226 -84.5 q192 0 350 129l56 -88q-89 -80 -187.5 -115.5t-222.5 -35.5q-247 0 -362 168q-175 -168 -385 -168q-193 0 -281 73t-88 226zM213 289q0 -98 63 -147.5t201 -49.5q166 0 318 133q-37 87 -43 217q-53 0 -129 1t-125 1q-149 0 -217 -36t-68 -119zM887 551h620q-9 158 -87 235.5 t-210 77.5q-131 0 -219 -76t-104 -237z" />
<glyph unicode="&#xe7;" horiz-adv-x="1013" d="M94 471q0 239 128.5 372.5t334.5 133.5q196 0 344 -98l-49 -95q-131 76 -293 76q-145 0 -237.5 -101.5t-92.5 -287.5q0 -179 89 -275t233 -96q98 0 175 26.5t161 92.5l53 -90q-94 -82 -185.5 -114.5t-222.5 -32.5l-4 -56q113 -2 158 -38.5t45 -127.5q0 -85 -53 -131.5 t-146 -46.5q-77 0 -184 31l19 82q87 -17 139 -17q129 0 129 82q0 52 -32.5 69t-119.5 17h-67l33 144q-162 27 -258.5 152t-96.5 329z" />
<glyph unicode="&#xe8;" horiz-adv-x="1069" d="M94 471q0 130 35.5 229t98.5 158.5t144 89t179 29.5q195 0 305.5 -117.5t116.5 -349.5q0 -37 -4 -68h-744q7 -181 95.5 -265.5t226.5 -84.5q192 0 350 129l55 -88q-89 -80 -187 -115.5t-222 -35.5q-97 0 -177 28t-141.5 85t-96 152.5t-34.5 223.5zM229 551h621 q-9 158 -87 235.5t-210 77.5q-131 0 -219.5 -76t-104.5 -237zM313 1354l111 73l221 -278l-45 -45q-92 60 -147.5 103.5t-137.5 117.5z" />
<glyph unicode="&#xe9;" horiz-adv-x="1069" d="M94 471q0 130 35.5 229t98.5 158.5t144 89t179 29.5q195 0 305.5 -117.5t116.5 -349.5q0 -37 -4 -68h-744q7 -181 95.5 -265.5t226.5 -84.5q192 0 350 129l55 -88q-89 -80 -187 -115.5t-222 -35.5q-97 0 -177 28t-141.5 85t-96 152.5t-34.5 223.5zM229 551h621 q-9 158 -87 235.5t-210 77.5q-131 0 -219.5 -76t-104.5 -237zM403 1130l222 279l110 -74l-2 -28q-63 -57 -93 -83t-79.5 -63t-111.5 -76z" />
<glyph unicode="&#xea;" horiz-adv-x="1069" d="M94 471q0 130 35.5 229t98.5 158.5t144 89t179 29.5q195 0 305.5 -117.5t116.5 -349.5q0 -37 -4 -68h-744q7 -181 95.5 -265.5t226.5 -84.5q192 0 350 129l55 -88q-89 -80 -187 -115.5t-222 -35.5q-97 0 -177 28t-141.5 85t-96 152.5t-34.5 223.5zM229 551h621 q-9 158 -87 235.5t-210 77.5q-131 0 -219.5 -76t-104.5 -237zM236 1149l243 242h105l245 -242l-55 -55q-45 35 -123.5 95t-118.5 91q-39 -31 -117.5 -90.5t-123.5 -95.5z" />
<glyph unicode="&#xeb;" horiz-adv-x="1069" d="M94 471q0 130 35.5 229t98.5 158.5t144 89t179 29.5q195 0 305.5 -117.5t116.5 -349.5q0 -37 -4 -68h-744q7 -181 95.5 -265.5t226.5 -84.5q192 0 350 129l55 -88q-89 -80 -187 -115.5t-222 -35.5q-97 0 -177 28t-141.5 85t-96 152.5t-34.5 223.5zM229 551h621 q-9 158 -87 235.5t-210 77.5q-131 0 -219.5 -76t-104.5 -237zM258 1247q0 38 25.5 62t60.5 24q39 0 63.5 -23.5t24.5 -62.5t-24.5 -61.5t-63.5 -22.5q-35 0 -60.5 23t-25.5 61zM631 1247q0 39 25 62.5t63 23.5q37 0 62.5 -23.5t25.5 -62.5q0 -38 -25.5 -61t-62.5 -23 q-38 0 -63 22.5t-25 61.5z" />
<glyph unicode="&#xec;" horiz-adv-x="456" d="M-6 1354l112 73l220 -278l-45 -45q-90 59 -145 102.5t-140 118.5zM160 0v958h137v-958h-137z" />
<glyph unicode="&#xed;" horiz-adv-x="456" d="M113 1130l221 279l110 -74l-2 -28q-67 -60 -95 -83.5t-78 -61.5t-111 -77zM160 0v958h137v-958h-137z" />
<glyph unicode="&#xee;" horiz-adv-x="456" d="M-70 1149l246 242h105l245 -242l-55 -55q-22 17 -108 82.5t-134 103.5q-47 -37 -127.5 -98t-115.5 -88zM160 0v958h137v-958h-137z" />
<glyph unicode="&#xef;" horiz-adv-x="456" d="M-45 1247q0 38 25.5 62t60.5 24q39 0 63.5 -23.5t24.5 -62.5t-24.5 -61.5t-63.5 -22.5q-35 0 -60.5 23t-25.5 61zM160 0v958h137v-958h-137zM328 1247q0 39 24.5 62.5t63.5 23.5q36 0 61 -23.5t25 -62.5t-24.5 -61.5t-61.5 -22.5q-39 0 -63.5 22.5t-24.5 61.5z" />
<glyph unicode="&#xf0;" horiz-adv-x="1138" d="M94 471q0 116 33.5 203t107.5 152.5t199.5 99.5t300.5 35q-71 83 -186 169l-262 -135l-39 84l217 115q-67 46 -172 111v22l121 53q98 -64 180 -125l209 111l41 -84l-170 -90q203 -165 286.5 -329t83.5 -392q0 -234 -124.5 -361.5t-352.5 -127.5q-225 0 -349 128t-124 361 zM229 467q0 -182 87 -277.5t251 -95.5q165 0 253.5 96t88.5 281q0 228 -98 385q-138 -1 -237.5 -16.5t-166.5 -45t-106 -77.5t-55.5 -108t-16.5 -142z" />
<glyph unicode="&#xf1;" horiz-adv-x="1130" d="M156 0v958h137v-159q162 176 373 176q165 0 241 -91.5t76 -285.5v-598h-137v567q0 152 -42.5 216.5t-162.5 64.5q-196 0 -348 -195v-653h-137zM270 1202q15 58 44 96.5t66 54t79 13.5t86 -23l112 -53q60 -28 97.5 -11t62.5 81l76 -21q-20 -79 -66 -124.5t-100 -48.5 t-111 22l-112 57q-59 28 -96 13t-62 -76z" />
<glyph unicode="&#xf2;" horiz-adv-x="1140" d="M94 471q0 233 128.5 369.5t346.5 136.5t346.5 -136.5t128.5 -369.5q0 -224 -128.5 -356.5t-348.5 -132.5q-217 0 -345 132.5t-128 356.5zM229 473q0 -172 91 -272.5t247 -100.5q159 0 251.5 100.5t92.5 272.5q0 178 -92 281.5t-250 103.5q-157 0 -248.5 -103.5 t-91.5 -281.5zM350 1354l111 73l221 -278l-45 -45q-92 60 -147.5 103.5t-137.5 117.5z" />
<glyph unicode="&#xf3;" horiz-adv-x="1140" d="M94 471q0 233 128.5 369.5t346.5 136.5t346.5 -136.5t128.5 -369.5q0 -224 -128.5 -356.5t-348.5 -132.5q-217 0 -345 132.5t-128 356.5zM229 473q0 -172 91 -272.5t247 -100.5q159 0 251.5 100.5t92.5 272.5q0 178 -92 281.5t-250 103.5q-157 0 -248.5 -103.5 t-91.5 -281.5zM446 1130l224 279l110 -74l-2 -28q-67 -59 -95.5 -83.5t-78.5 -62t-112 -76.5z" />
<glyph unicode="&#xf4;" horiz-adv-x="1138" d="M94 471q0 233 128.5 369.5t346.5 136.5t346.5 -136.5t128.5 -369.5q0 -224 -128.5 -356.5t-348.5 -132.5q-217 0 -345 132.5t-128 356.5zM229 473q0 -172 91 -272.5t247 -100.5q159 0 251.5 100.5t92.5 272.5q0 178 -92 281.5t-250 103.5q-157 0 -248.5 -103.5 t-91.5 -281.5zM272 1149l246 244h103l247 -244l-57 -55q-48 39 -128.5 99.5t-113.5 86.5q-31 -25 -112 -86t-129 -100z" />
<glyph unicode="&#xf5;" horiz-adv-x="1138" d="M94 471q0 233 128.5 369.5t346.5 136.5t346.5 -136.5t128.5 -369.5q0 -224 -128.5 -356.5t-348.5 -132.5q-217 0 -345 132.5t-128 356.5zM229 473q0 -172 91 -272.5t247 -100.5q159 0 251.5 100.5t92.5 272.5q0 178 -92 281.5t-250 103.5q-157 0 -248.5 -103.5 t-91.5 -281.5zM260 1202q15 58 44 96.5t66 54t79 13.5t86 -23l112 -53q61 -28 97 -11t63 81l76 -21q-20 -79 -66 -124.5t-100.5 -48.5t-112.5 22l-112 57q-59 28 -95 13t-61 -76z" />
<glyph unicode="&#xf6;" horiz-adv-x="1138" d="M94 471q0 233 128.5 369.5t346.5 136.5t346.5 -136.5t128.5 -369.5q0 -224 -128.5 -356.5t-348.5 -132.5q-217 0 -345 132.5t-128 356.5zM229 473q0 -172 91 -272.5t247 -100.5q159 0 251.5 100.5t92.5 272.5q0 178 -92 281.5t-250 103.5q-157 0 -248.5 -103.5 t-91.5 -281.5zM297 1247q0 40 24.5 63t61.5 23q39 0 62.5 -22.5t23.5 -63.5q0 -38 -23.5 -60t-62.5 -22q-36 0 -61 22.5t-25 59.5zM670 1247q0 40 24 63t62 23q37 0 62.5 -23t25.5 -63q0 -37 -25.5 -59.5t-62.5 -22.5q-38 0 -62 22t-24 60z" />
<glyph unicode="&#xf7;" horiz-adv-x="948" d="M70 432v105h804v-105h-804zM393 178q0 34 21 56t55 22q35 0 56.5 -22t21.5 -56t-21.5 -55t-56.5 -21q-34 0 -55 21t-21 55zM393 809q0 34 21 55t55 21q35 0 56.5 -21t21.5 -55t-21.5 -56t-56.5 -22q-34 0 -55 22t-21 56z" />
<glyph unicode="&#xf8;" horiz-adv-x="1130" d="M80 471q0 233 128.5 369.5t346.5 136.5q176 0 295 -90l74 86l51 -47l-74 -84q129 -135 129 -371q0 -224 -128.5 -356.5t-348.5 -132.5q-193 0 -317 106l-68 -78l-47 43l69 82q-110 128 -110 336zM215 473q0 -142 64 -237l487 557q-83 65 -211 65q-157 0 -248.5 -103.5 t-91.5 -281.5zM322 184q87 -84 231 -84q159 0 251.5 100.5t92.5 272.5q0 168 -82 270z" />
<glyph unicode="&#xf9;" horiz-adv-x="1126" d="M141 365v593h135v-565q0 -149 49 -218t169 -69q92 0 181.5 56.5t155.5 146.5v649h138v-958h-138v160q-175 -178 -378 -178q-163 0 -237.5 93.5t-74.5 289.5zM362 1354l113 73l221 -278l-45 -45q-90 59 -144.5 101.5t-141.5 119.5z" />
<glyph unicode="&#xfa;" horiz-adv-x="1126" d="M141 365v593h135v-565q0 -149 49 -218t169 -69q92 0 181.5 56.5t155.5 146.5v649h138v-958h-138v160q-175 -178 -378 -178q-163 0 -237.5 93.5t-74.5 289.5zM426 1130l223 279l111 -74l-2 -28q-64 -57 -95 -83t-80.5 -63t-111.5 -76z" />
<glyph unicode="&#xfb;" horiz-adv-x="1126" d="M141 365v593h135v-565q0 -149 49 -218t169 -69q92 0 181.5 56.5t155.5 146.5v649h138v-958h-138v160q-175 -178 -378 -178q-163 0 -237.5 93.5t-74.5 289.5zM266 1149l244 242h104l246 -242l-55 -55q-45 35 -123.5 95t-118.5 91q-39 -31 -117.5 -90.5t-123.5 -95.5z" />
<glyph unicode="&#xfc;" horiz-adv-x="1126" d="M141 365v593h135v-565q0 -149 49 -218t169 -69q92 0 181.5 56.5t155.5 146.5v649h138v-958h-138v160q-175 -178 -378 -178q-163 0 -237.5 93.5t-74.5 289.5zM289 1247q0 38 25.5 62t60.5 24q39 0 63.5 -23.5t24.5 -62.5t-24.5 -61.5t-63.5 -22.5q-35 0 -60.5 23t-25.5 61 zM662 1247q0 39 25 62.5t63 23.5q37 0 62.5 -23.5t25.5 -62.5q0 -38 -25.5 -61t-62.5 -23q-38 0 -63 22.5t-25 61.5z" />
<glyph unicode="&#xfd;" horiz-adv-x="1013" d="M8 958h144l276 -647q53 -121 64 -151q37 71 70 140t73.5 163t60 141.5t73.5 179.5t71 172h151q-234 -558 -356 -802q-86 -166 -190.5 -278.5t-239.5 -170.5l-49 117q154 80 252 205zM371 1130l223 279l111 -74l-3 -28q-67 -59 -95.5 -83.5t-78.5 -62t-112 -76.5z" />
<glyph unicode="&#xfe;" horiz-adv-x="1144" d="M156 -338v1655h137v-494q76 70 173 112t200 42q385 0 385 -496q0 -131 -34 -230t-92.5 -156t-130 -85t-153.5 -28q-114 0 -190.5 38t-157.5 119v-477h-137zM293 266q76 -85 147 -127.5t166 -42.5q62 0 115.5 21t98 64.5t70 120.5t25.5 179q0 379 -290 379q-89 0 -175 -46 t-157 -122v-426z" />
<glyph unicode="&#xff;" horiz-adv-x="1013" d="M8 958h144l276 -647q53 -121 64 -151q37 71 70 140t73.5 163t60 141.5t73.5 179.5t71 172h151q-234 -558 -356 -802q-86 -166 -190.5 -278.5t-239.5 -170.5l-49 117q154 80 252 205zM233 1247q0 38 25.5 62t60.5 24q39 0 64 -23.5t25 -62.5t-25 -61.5t-64 -22.5 q-35 0 -60.5 23t-25.5 61zM606 1247q0 39 25 62.5t63 23.5q37 0 62.5 -23.5t25.5 -62.5q0 -38 -25.5 -61t-62.5 -23q-38 0 -63 22.5t-25 61.5z" />
<glyph unicode="&#x152;" horiz-adv-x="1966" d="M104 623q0 311 152.5 479t431.5 168q173 0 297 -82v61h817v-131h-678v-422h594v-131h-594v-434h697v-131h-836v61q-119 -79 -297 -79q-279 0 -431.5 167t-152.5 474zM248 623q0 -248 113 -379t325 -131q193 0 299 100v825q-107 101 -299 101q-212 0 -325 -132.5 t-113 -383.5z" />
<glyph unicode="&#x153;" horiz-adv-x="1886" d="M82 471q0 233 128 369.5t345 136.5q137 0 242 -56t164 -159q58 109 160.5 162t234.5 53q193 0 303.5 -118t116.5 -349q0 -37 -4 -68h-742v-10q10 -177 97 -258.5t225 -81.5q189 0 350 129l53 -88q-88 -80 -186 -115.5t-223 -35.5q-130 0 -231 50.5t-157 155.5 q-59 -99 -162.5 -152.5t-240.5 -53.5q-218 0 -345.5 132t-127.5 357zM215 473q0 -172 91 -272.5t249 -100.5t250 100.5t92 272.5q0 178 -91.5 281.5t-248.5 103.5q-158 0 -250 -103.5t-92 -281.5zM1032 551h623q-9 158 -88 235.5t-211 77.5q-131 0 -219.5 -76t-104.5 -237z " />
<glyph unicode="&#x178;" horiz-adv-x="1146" d="M39 1249h143l355 -602q19 -35 36 -86q14 44 39 86l353 602h145l-467 -819v-430h-139v430zM301 1491q0 38 25.5 62t60.5 24q39 0 63.5 -23.5t24.5 -62.5t-24.5 -61.5t-63.5 -22.5q-35 0 -60.5 23t-25.5 61zM674 1491q0 39 24.5 62.5t63.5 23.5q36 0 61 -23.5t25 -62.5 t-24.5 -61.5t-61.5 -22.5q-39 0 -63.5 22.5t-24.5 61.5z" />
<glyph unicode="&#x2c6;" horiz-adv-x="993" d="M199 1149l245 242h105l246 -242l-56 -55q-31 24 -79 60.5t-87 66.5t-75 59q-46 -36 -126 -96.5t-118 -89.5z" />
<glyph unicode="&#x2dc;" horiz-adv-x="993" d="M186 1202q15 58 44 96.5t66 54t79 13.5t86 -23l112 -53q60 -28 97.5 -11t62.5 81l76 -21q-20 -79 -66 -124.5t-100 -48.5t-111 22l-112 57q-59 28 -96 13t-62 -76z" />
<glyph unicode="&#x2000;" horiz-adv-x="861" />
<glyph unicode="&#x2001;" horiz-adv-x="1722" />
<glyph unicode="&#x2002;" horiz-adv-x="861" />
<glyph unicode="&#x2003;" horiz-adv-x="1722" />
<glyph unicode="&#x2004;" horiz-adv-x="574" />
<glyph unicode="&#x2005;" horiz-adv-x="430" />
<glyph unicode="&#x2006;" horiz-adv-x="287" />
<glyph unicode="&#x2007;" horiz-adv-x="287" />
<glyph unicode="&#x2008;" horiz-adv-x="215" />
<glyph unicode="&#x2009;" horiz-adv-x="344" />
<glyph unicode="&#x200a;" horiz-adv-x="95" />
<glyph unicode="&#x2010;" horiz-adv-x="798" d="M135 516v123h529v-123h-529z" />
<glyph unicode="&#x2011;" horiz-adv-x="798" d="M135 516v123h529v-123h-529z" />
<glyph unicode="&#x2012;" horiz-adv-x="798" d="M135 516v123h529v-123h-529z" />
<glyph unicode="&#x2013;" horiz-adv-x="1024" d="M135 514v107h754v-107h-754z" />
<glyph unicode="&#x2014;" horiz-adv-x="1822" d="M135 514v107h1553v-107h-1553z" />
<glyph unicode="&#x2018;" horiz-adv-x="507" d="M172 1034q0 192 186 330l39 -43q-60 -53 -85 -102.5t-33 -112.5q31 -6 50 -28.5t19 -53.5q0 -39 -24.5 -63.5t-63.5 -24.5t-63.5 28t-24.5 70z" />
<glyph unicode="&#x2019;" horiz-adv-x="507" d="M113 979q60 53 85 102.5t33 112.5q-31 6 -50 28.5t-19 53.5q0 39 24.5 63.5t63.5 24.5t63.5 -28t24.5 -70q0 -192 -186 -330z" />
<glyph unicode="&#x201a;" horiz-adv-x="507" d="M113 -168q60 53 85 102.5t33 112.5q-31 6 -50 28.5t-19 53.5q0 39 24.5 63.5t63.5 24.5t63.5 -28t24.5 -70q0 -192 -186 -330z" />
<glyph unicode="&#x201c;" horiz-adv-x="794" d="M172 1034q0 192 186 330l39 -43q-60 -53 -85 -102.5t-33 -112.5q31 -6 50 -28.5t19 -53.5q0 -39 -24.5 -63.5t-63.5 -24.5t-63.5 28t-24.5 70zM459 1034q0 192 186 330l39 -43q-60 -53 -85.5 -103t-33.5 -112q31 -6 50.5 -28.5t19.5 -53.5q0 -39 -24.5 -63.5t-63.5 -24.5 t-63.5 28t-24.5 70z" />
<glyph unicode="&#x201d;" horiz-adv-x="794" d="M113 979q60 53 85 102.5t33 112.5q-31 6 -50 28.5t-19 53.5q0 39 24.5 63.5t63.5 24.5t63.5 -28t24.5 -70q0 -192 -186 -330zM399 979q60 53 85.5 103t33.5 112q-31 6 -50 28.5t-19 53.5q0 39 24.5 63.5t63.5 24.5t63.5 -28t24.5 -70q0 -191 -187 -330z" />
<glyph unicode="&#x201e;" horiz-adv-x="794" d="M113 -168q60 53 85 102.5t33 112.5q-31 6 -50 28.5t-19 53.5q0 39 24.5 63.5t63.5 24.5t63.5 -28t24.5 -70q0 -192 -186 -330zM399 -168q60 53 85.5 103t33.5 112q-31 6 -50 28.5t-19 53.5q0 39 24.5 63.5t63.5 24.5t63.5 -28t24.5 -70q0 -191 -187 -330z" />
<glyph unicode="&#x2022;" horiz-adv-x="630" d="M186 578q0 58 35 93.5t94 35.5q60 0 94.5 -35t34.5 -94q0 -56 -35 -91.5t-94 -35.5q-58 0 -93.5 35.5t-35.5 91.5z" />
<glyph unicode="&#x2026;" horiz-adv-x="1400" d="M143 84q0 39 23.5 62.5t62.5 23.5q40 0 64 -24t24 -62q0 -39 -24.5 -64.5t-63.5 -25.5t-62.5 25.5t-23.5 64.5zM600 84q0 38 24 62t64 24q39 0 62.5 -23.5t23.5 -62.5t-23.5 -64.5t-62.5 -25.5t-63.5 25.5t-24.5 64.5zM1057 84q0 39 23.5 62.5t62.5 23.5q40 0 64 -24 t24 -62q0 -39 -24.5 -64.5t-63.5 -25.5t-62.5 25.5t-23.5 64.5z" />
<glyph unicode="&#x202f;" horiz-adv-x="344" />
<glyph unicode="&#x2039;" horiz-adv-x="724" d="M115 498l407 415l74 -69l-262 -275q-33 -36 -80 -73q39 -31 82 -74l260 -272l-72 -68z" />
<glyph unicode="&#x203a;" horiz-adv-x="724" d="M129 150l260 272q51 51 80 74q-52 44 -78 73l-262 275l72 69l405 -415l-407 -416z" />
<glyph unicode="&#x205f;" horiz-adv-x="430" />
<glyph unicode="&#x20ac;" horiz-adv-x="1214" d="M96 387v80h150q-2 25 -2 76q0 50 2 73h-150v82h160q18 109 64 191.5t110 131t136 72t151 23.5q212 0 370 -108l-47 -90q-131 88 -309 88q-53 0 -103 -16t-98 -50t-84.5 -96t-54.5 -146h543l-25 -82h-528q-4 -46 -4 -73q0 -26 4 -76h491l-24 -80h-457q17 -83 52.5 -143 t82 -92t95 -46t102.5 -14q108 0 192.5 31.5t157.5 99.5l53 -82q-83 -84 -181.5 -121.5t-237.5 -37.5q-60 0 -116 13t-111 43.5t-99 76t-77 115.5t-48 157h-160z" />
<glyph unicode="&#x2122;" horiz-adv-x="1560" d="M51 1169v80h580v-80h-244v-491h-90v491h-246zM707 678l24 571h90l213 -446q4 -7 8 -19.5t5 -15.5q1 3 5 15.5t7 19.5l213 446h90l24 -571h-88l-14 428l-201 -428h-73l-201 428l-14 -428h-88z" />
<glyph unicode="&#x25fc;" horiz-adv-x="962" d="M0 0v963h963v-963h-963z" />
<glyph unicode="&#xfb03;" horiz-adv-x="1734" d="M49 842v116h137v93q0 162 70.5 239.5t228.5 77.5q109 0 181 -16l-13 -105q-61 6 -147 6q-101 0 -141.5 -49t-40.5 -153v-93h499v93q0 162 68.5 239.5t226.5 77.5q80 0 213 -20l-10 -99q-133 13 -182 13q-100 0 -140.5 -52.5t-40.5 -158.5v-93h615v-958h-135v842h-480 v-842h-135v842h-499v-842h-138v842h-137zM1421 1239q0 37 24.5 58.5t61.5 21.5t61.5 -21.5t24.5 -58.5q0 -38 -24.5 -60t-61.5 -22t-61.5 22t-24.5 60z" />
<glyph unicode="&#xfb04;" horiz-adv-x="1724" d="M49 842v116h137v93q0 162 70.5 239.5t228.5 77.5q109 0 181 -16l-13 -105q-61 6 -147 6q-100 0 -141 -50t-41 -154v-91h493v93q0 162 69 239.5t226 77.5q95 0 320 -41v35h135v-1362h-135v1229q-177 24 -299 24q-100 0 -139.5 -48.5t-39.5 -153.5v-93h308v-116h-308v-842 h-137v842h-493v-842h-138v842h-137z" />
</font>
</defs>
</svg>
