<?xml version="1.0" standalone="no"?>
<!DOCTYPE svg PUBLIC "-//W3C//DTD SVG 1.1//EN" "http://www.w3.org/Graphics/SVG/1.1/DTD/svg11.dtd" >
<svg xmlns="http://www.w3.org/2000/svg">
<metadata></metadata>
<defs>
<font id="gentonalight_italic" horiz-adv-x="1150" >
<font-face units-per-em="2048" ascent="1638" descent="-410" />
<missing-glyph horiz-adv-x="471" />
<glyph unicode="&#xfb01;" horiz-adv-x="1116" d="M100 842l17 116h141l12 93q24 162 103 239.5t235 77.5q69 0 219 -22l-24 -105q-122 12 -187 12q-101 0 -147.5 -49.5t-60.5 -154.5l-13 -91h613l-136 -958h-135l117 842h-475l-119 -842h-137l119 842h-142zM895 1239q6 37 33 58.5t63 21.5q37 0 59.5 -22t16.5 -60 q-4 -37 -31.5 -58.5t-64.5 -21.5q-36 0 -58 22.5t-18 59.5z" />
<glyph unicode="&#xfb02;" horiz-adv-x="1095" d="M100 842l17 116h141l12 93q24 162 103 239.5t235 77.5q94 0 314 -41l4 35h137l-191 -1362h-137l172 1229q-173 24 -291 24q-101 0 -147.5 -49.5t-60.5 -154.5l-13 -91h307l-16 -116h-307l-119 -842h-137l119 842h-142z" />
<glyph horiz-adv-x="2048" />
<glyph horiz-adv-x="2048" />
<glyph unicode="&#xd;" horiz-adv-x="2048" />
<glyph unicode=" "  horiz-adv-x="471" />
<glyph unicode="&#x09;" horiz-adv-x="471" />
<glyph unicode="&#xa0;" horiz-adv-x="471" />
<glyph unicode="!" horiz-adv-x="421" d="M74 74q5 34 28 55t58 21t53.5 -22t13.5 -56t-28.5 -56t-57.5 -22q-36 0 -54.5 23t-12.5 57zM139 395l101 854h149l-141 -854h-109z" />
<glyph unicode="&#x22;" horiz-adv-x="587" d="M166 817l74 524h131l-113 -524h-92zM387 817l74 524h129l-113 -524h-90z" />
<glyph unicode="#" horiz-adv-x="1402" d="M104 283l21 100h254l88 362h-250l21 101h254l67 280h117l-70 -280h352l68 280h115l-68 -280h264l-20 -101h-268l-91 -362h267l-19 -100h-272l-68 -283h-114l69 283h-352l-70 -283h-112l67 283h-250zM494 383h352l88 362h-352z" />
<glyph unicode="$" horiz-adv-x="1069" d="M29 160l67 96q170 -164 412 -164q119 0 197 51.5t90 135.5q5 44 -4.5 73.5t-45.5 58t-92.5 53t-156.5 58.5t-160 63t-99.5 66.5t-50.5 83t-2 109.5q15 119 116 193t257 77l18 137h99l-21 -143q165 -17 332 -102l-53 -97q-203 99 -365 99q-104 0 -174 -45.5t-80 -120.5 q-5 -42 3 -69.5t43 -54t88.5 -48.5t152.5 -56q202 -64 273.5 -138t54.5 -197q-20 -135 -136.5 -216t-295.5 -81l-17 -119h-98l18 125q-223 25 -370 172z" />
<glyph unicode="%" horiz-adv-x="1703" d="M135 901q26 180 116.5 274.5t237.5 94.5q148 0 212 -96t38 -277q-25 -179 -114.5 -272t-237.5 -93t-213 94t-39 275zM233 897q-20 -134 21.5 -206.5t142.5 -72.5q102 0 164.5 73.5t81.5 209.5q20 137 -21.5 209t-142.5 72q-102 0 -164.5 -73t-81.5 -212zM342 0l909 1249 h90l-909 -1249h-90zM977 350q26 180 116.5 274.5t237.5 94.5q148 0 213 -95t39 -276q-26 -180 -116 -273t-236 -93q-149 0 -214 94t-40 274zM1075 348q-20 -135 21.5 -206.5t142.5 -71.5q103 0 165 72t81 208q20 138 -21.5 210.5t-142.5 72.5q-102 0 -164.5 -73t-81.5 -212z " />
<glyph unicode="&#x26;" horiz-adv-x="1306" d="M80 334q14 106 95 177.5t253 145.5q-86 96 -115 167t-18 159l127 -6q-10 -71 17 -127.5t108 -144.5l53 20q127 51 190 109t74 133q13 99 -38 153t-152 54q-100 0 -170 -53.5t-82 -143.5l-127 6q20 132 125 209.5t266 77.5q151 0 232 -82.5t61 -222.5q-13 -101 -95.5 -186 t-242.5 -146l-12 -6l309 -291q81 93 174 233l92 -59q-107 -159 -186 -250l176 -166l-80 -94l-178 172q-104 -101 -211.5 -145.5t-239.5 -44.5q-212 0 -320.5 92.5t-84.5 259.5zM217 344q-17 -120 58.5 -186t224.5 -66q97 0 182.5 37.5t171.5 118.5l-348 332 q-145 -57 -212 -108t-77 -128z" />
<glyph unicode="'" horiz-adv-x="366" d="M164 817l74 524h129l-111 -524h-92z" />
<glyph unicode="(" horiz-adv-x="628" d="M170 500q65 472 426 850l78 -56q-319 -361 -379 -796q-62 -421 156 -795l-93 -55q-257 377 -188 852z" />
<glyph unicode=")" horiz-adv-x="624" d="M-39 -297q318 365 379 797q62 424 -156 794l92 56q257 -378 189 -852q-66 -472 -426 -850z" />
<glyph unicode="*" horiz-adv-x="845" d="M182 760l205 158l-205 155l41 62l213 -136l80 250l74 -18l-60 -258l258 10l5 -72l-256 -34l98 -238l-66 -31l-120 238l-226 -146z" />
<glyph unicode="+" horiz-adv-x="952" d="M61 430l17 107h350l51 352h105l-52 -354h357l-17 -105h-354l-51 -352h-102l49 352h-353z" />
<glyph unicode="," horiz-adv-x="507" d="M29 -215q50 39 91 98t58 117q-29 6 -45 29.5t-12 54.5q5 38 31.5 62t66.5 24q39 0 60 -27.5t16 -70.5q-10 -86 -73.5 -175.5t-158.5 -154.5z" />
<glyph unicode="-" horiz-adv-x="796" d="M145 516l17 123h530l-18 -123h-529z" />
<glyph unicode="." horiz-adv-x="487" d="M102 84q5 38 32 62t67 24q39 0 60 -24.5t15 -63.5q-5 -38 -31.5 -63t-64.5 -25q-41 0 -62.5 25.5t-15.5 64.5z" />
<glyph unicode="/" horiz-adv-x="632" d="M-131 -420l778 1780h121l-780 -1780h-119z" />
<glyph unicode="0" horiz-adv-x="1251" d="M127 625q43 312 199.5 478.5t410.5 166.5t363.5 -166.5t66.5 -480.5q-45 -310 -201 -475.5t-409 -165.5q-254 0 -364 166.5t-66 476.5zM266 623q-34 -251 43.5 -382.5t263.5 -131.5t302 133t151 383q35 252 -42 385t-263 133q-188 0 -304 -133.5t-151 -386.5z" />
<glyph unicode="1" horiz-adv-x="972" d="M55 0l17 121h336l135 966q-187 -67 -367 -108l-16 88q241 81 436 182h106l-155 -1128h282l-16 -121h-758z" />
<glyph unicode="2" horiz-adv-x="1052" d="M4 0l14 102q77 57 201.5 145.5t199.5 142t169.5 128.5t148.5 130t96 119.5t50 121.5q17 120 -45 191t-185 71q-201 0 -467 -109l-26 101q279 127 504 127q184 0 277 -105t67 -282q-5 -41 -21.5 -82t-37 -77t-57.5 -78t-68 -74t-84.5 -76t-91 -73t-104 -76t-106.5 -74.5 t-116.5 -78.5t-116.5 -79q8 0 74.5 3t95.5 3h557l-17 -121h-911z" />
<glyph unicode="3" horiz-adv-x="1073" d="M-8 104l57 99q99 -53 219.5 -80t225.5 -27q142 0 237.5 66t110.5 176q17 122 -66.5 184t-249.5 62h-184l18 121h183q320 0 350 208q14 108 -51.5 173t-188.5 65q-101 0 -227 -27.5t-238 -74.5l-22 96q257 119 502 119q180 0 277 -94.5t75 -249.5q-15 -103 -84 -174 t-176 -103q250 -70 215 -309q-23 -161 -156.5 -256.5t-333.5 -95.5q-127 0 -259 31.5t-234 90.5z" />
<glyph unicode="4" horiz-adv-x="1212" d="M29 295l12 108l864 846h137l-114 -833h219l-19 -121h-219l-41 -295h-137l41 295h-743zM207 416h581l93 661q-73 -82 -125 -131l-412 -397q-52 -54 -137 -133z" />
<glyph unicode="5" horiz-adv-x="1095" d="M6 104l57 103q200 -105 424 -105q150 0 255 77.5t124 205.5q17 120 -56.5 194t-211.5 74q-151 0 -330 -84l-114 21l141 659h780l-16 -121h-660l-98 -454q189 78 344 78q186 0 282.5 -101.5t71.5 -273.5q-24 -180 -166.5 -287.5t-343.5 -107.5q-126 0 -254 31t-229 91z " />
<glyph unicode="6" horiz-adv-x="1155" d="M104 578q45 312 238.5 502t456.5 190q179 0 315 -64l-49 -102q-132 49 -274 49q-208 0 -355.5 -149.5t-191.5 -411.5q81 94 195 149.5t253 55.5q191 0 292.5 -105.5t76.5 -283.5q-29 -201 -170.5 -313.5t-347.5 -112.5q-255 0 -366.5 155.5t-72.5 440.5zM233 451 q-5 -168 77.5 -261.5t246.5 -93.5q143 0 246.5 84t126.5 236q18 130 -59 200t-226 70q-111 0 -219 -59t-193 -176z" />
<glyph unicode="7" horiz-adv-x="925" d="M111 1128l16 121h895l-14 -106q-209 -218 -403.5 -529t-317.5 -614h-162q132 305 325.5 610.5t399.5 517.5h-739z" />
<glyph unicode="8" horiz-adv-x="1193" d="M61 334q33 236 359 317q-242 80 -213 293q22 150 158.5 238t349.5 88q208 0 315.5 -88.5t87.5 -235.5q-31 -216 -315 -287q166 -42 236 -123.5t51 -205.5q-22 -163 -172 -255.5t-386 -92.5q-253 0 -373.5 92.5t-97.5 259.5zM199 338q-17 -116 74 -181t264 -65 q172 0 282 65.5t127 180.5q14 107 -71 169.5t-304 100.5q-184 -32 -271.5 -100t-100.5 -170zM342 942q-14 -99 56.5 -157.5t244.5 -90.5q319 52 344 254q15 100 -65 163t-224 63q-146 0 -244 -64.5t-112 -167.5z" />
<glyph unicode="9" horiz-adv-x="1155" d="M88 53l51 101q133 -56 279 -56q210 0 352 147t188 414q-80 -93 -198 -148.5t-258 -55.5q-191 0 -292.5 105.5t-76.5 283.5q29 202 171 314t353 112q235 0 351.5 -161.5t78.5 -434.5q-45 -320 -229 -506t-448 -186q-191 0 -322 71zM264 836q-18 -130 59 -200.5t226 -70.5 q114 0 230 60.5t190 175.5q5 166 -80.5 260t-245.5 94q-148 0 -253 -83.5t-126 -235.5z" />
<glyph unicode=":" horiz-adv-x="487" d="M111 84q5 38 31.5 62t66.5 24q39 0 60 -24.5t16 -63.5t-32.5 -63.5t-66.5 -24.5t-60 25.5t-15 64.5zM209 782q5 38 31.5 62t66.5 24q39 0 60 -25t16 -65q-5 -37 -32 -61.5t-66 -24.5t-60.5 25.5t-15.5 64.5z" />
<glyph unicode=";" horiz-adv-x="514" d="M18 -215q51 39 92 98.5t58 116.5q-30 6 -46 29.5t-11 54.5q5 38 31.5 62t66.5 24q39 0 59 -27t15 -71q-9 -85 -73 -174.5t-159 -155.5zM221 782q6 38 32.5 62t65.5 24t60.5 -25.5t15.5 -64.5q-5 -38 -31.5 -62t-66.5 -24t-61 25t-15 65z" />
<glyph unicode="&#x3c;" horiz-adv-x="815" d="M104 498l564 415l59 -82l-393 -288l-74 -51q9 -7 28 -24t31 -26l308 -288l-74 -72z" />
<glyph unicode="=" horiz-adv-x="931" d="M43 313l14 95h791l-12 -95h-793zM84 606l14 92h791l-12 -92h-793z" />
<glyph unicode="&#x3e;" horiz-adv-x="815" d="M78 166l393 289l74 49q-22 19 -60 49l-307 289l76 71l446 -413l-563 -418z" />
<glyph unicode="?" horiz-adv-x="1032" d="M129 1143q279 127 504 127q183 0 277 -102.5t71 -274.5q-22 -144 -149.5 -238.5t-339.5 -128.5l-21 -161h-113l17 264q204 19 326 86t135 170q17 119 -47 188.5t-191 69.5q-154 0 -438 -105zM299 74q5 34 28.5 55t57.5 21q36 0 54.5 -22t13.5 -56t-28.5 -56t-57.5 -22 q-36 0 -55 23t-13 57z" />
<glyph unicode="@" horiz-adv-x="1884" d="M94 422q27 188 114 346.5t216.5 268.5t299 171.5t357.5 61.5q244 0 414 -94t244 -265t43 -395q-17 -116 -53.5 -209t-82 -152.5t-100 -99.5t-106.5 -56.5t-103 -16.5q-81 0 -126.5 32.5t-49.5 112.5q-106 -78 -188 -111.5t-189 -33.5q-165 0 -239.5 106t-42.5 342 q31 222 144.5 328t287.5 106q172 0 307 -112l12 94h123l-90 -643q-12 -78 9 -111t75 -33q49 0 98.5 25.5t97.5 78t86 145t56 212.5q43 309 -128 494.5t-507 185.5q-232 0 -426 -97t-319.5 -275.5t-159.5 -409.5q-47 -340 133 -545t524 -205q273 0 510 123l25 -57 q-242 -140 -543 -140q-248 0 -424.5 103t-255 291.5t-43.5 433.5zM616.5 260.5q6.5 -66.5 37 -106.5t73.5 -57t104 -17q92 0 168.5 41t169.5 125l56 389q-122 125 -269 125q-134 0 -222.5 -80.5t-112.5 -253.5q-11 -99 -4.5 -165.5z" />
<glyph unicode="A" horiz-adv-x="1327" d="M-35 0l711 1249h186l363 -1249h-150l-94 330h-680l-186 -330h-150zM375 459h569l-158 545q-21 71 -32 145h-2q-39 -95 -68 -148z" />
<glyph unicode="B" horiz-adv-x="1265" d="M123 0l176 1249h414q230 1 335 -87q85 -71 85 -195q0 -29 -5 -62q-12 -92 -74 -160t-159 -94q130 -25 191 -107q48 -65 48 -156q0 -25 -4 -52q-25 -172 -162 -254t-399 -82h-446zM281 133h307q191 0 287.5 48t113.5 165q4 24 4 45q1 87 -63 133q-78 56 -268 56h-318z M362 709h322q144 0 221 46.5t90 143.5q2 19 2 36q0 87 -58 131q-70 52 -243 52h-276z" />
<glyph unicode="C" horiz-adv-x="1277" d="M127 625q43 311 220.5 478t465.5 167q118 0 233.5 -28.5t190.5 -78.5l-61 -108q-77 39 -178 61.5t-197 22.5q-226 0 -362 -132t-171 -384q-9 -64 -9 -120q0 -159 71 -257q96 -134 305 -133q270 0 467 129l41 -107q-213 -153 -531 -153q-273 0 -401 168q-95 125 -95 327 q0 69 11 148z" />
<glyph unicode="D" horiz-adv-x="1337" d="M109 0l176 1249h377q312 1 466 -157q122 -124 122 -336q0 -56 -9 -119q-44 -311 -241 -474t-508 -163h-383zM268 131h242q241 0 397.5 130t190.5 378q8 55 8 104q0 164 -90 256q-118 119 -371 119h-239z" />
<glyph unicode="E" horiz-adv-x="1144" d="M109 0l176 1249h815l-17 -131h-677l-60 -422h594l-18 -131h-594l-60 -434h695l-17 -131h-837z" />
<glyph unicode="F" horiz-adv-x="1067" d="M109 0l176 1249h796l-16 -131h-659l-62 -442h576l-19 -131h-575l-76 -545h-141z" />
<glyph unicode="G" horiz-adv-x="1366" d="M127 625q41 305 220 475t460 170q123 0 248 -26.5t221 -74.5l-59 -114q-195 84 -414 84q-222 0 -361 -134t-174 -382q-10 -67 -10 -126q0 -155 68 -251q92 -133 292 -133q267 0 453 118l39 273h-465l19 129h598l-66 -477q-149 -91 -292.5 -132.5t-305.5 -41.5 q-263 0 -389 168q-93 125 -93 326q0 70 11 149z" />
<glyph unicode="H" horiz-adv-x="1406" d="M123 0l176 1249h139l-76 -544h746l78 544h139l-176 -1249h-139l80 573h-746l-82 -573h-139z" />
<glyph unicode="I" horiz-adv-x="520" d="M109 0l176 1249h139l-174 -1249h-141z" />
<glyph unicode="J" horiz-adv-x="978" d="M-8 86l57 113q164 -80 297 -80q261 0 301 293l117 837h141l-119 -839q-29 -210 -139.5 -319t-292.5 -109q-174 0 -362 104z" />
<glyph unicode="K" horiz-adv-x="1273" d="M109 0l176 1249h139l-102 -735l804 735h166l-2 -8l-555 -514l422 -717l-2 -10h-137l-385 633l-340 -316l-43 -317h-141z" />
<glyph unicode="L" horiz-adv-x="1028" d="M109 0l176 1249h139l-156 -1116h633l-20 -133h-772z" />
<glyph unicode="M" horiz-adv-x="1710" d="M115 0l217 1249h168l291 -985q2 -7 16 -69q4 10 37 69l569 985h166l-131 -1249h-141l96 924l8 57l-569 -981h-121l-295 981l-6 -53l-164 -928h-141z" />
<glyph unicode="N" horiz-adv-x="1417" d="M117 0l174 1249h127l629 -1013l6 40l135 973h141l-176 -1249h-127l-629 1010l-10 -76l-131 -934h-139z" />
<glyph unicode="O" horiz-adv-x="1374" d="M127 625q43 310 218 477.5t454 167.5q277 0 405 -168q96 -126 97 -332q0 -69 -11 -147q-43 -307 -219 -474t-453 -167q-278 0 -406 168q-96 125 -96 327q0 69 11 148zM268 623q-9 -67 -9 -125q0 -158 69 -254q95 -131 307 -131q213 0 346 132t168 380q9 66 9 124 q0 161 -70 258q-95 132 -308 132q-212 0 -344.5 -132.5t-167.5 -383.5z" />
<glyph unicode="P" horiz-adv-x="1169" d="M102 0l177 1249h407q244 1 356 -113q91 -92 91 -249q0 -36 -5 -76q-26 -212 -170 -327t-383 -115h-280l-53 -369h-140zM313 500h279q172 0 276 82t123 233q3 28 3 54q0 111 -63 173q-78 76 -261 76h-271z" />
<glyph unicode="Q" horiz-adv-x="1363" d="M113 625q43 310 215.5 477.5t449.5 167.5q278 0 404 -168q95 -125 95 -330q0 -70 -11 -149q-43 -308 -216 -474.5t-450 -166.5q-278 0 -404 167q-94 125 -94 328q0 69 11 148zM254 623q-9 -67 -9 -125q0 -159 67 -254q93 -131 304 -131t342 131.5t166 380.5q9 67 9 126 q0 160 -67 257q-93 131 -302 131q-213 0 -344 -132t-166 -384zM451 -188l45 96q124 -81 251.5 -116.5t309.5 -35.5l-19 -127q-355 0 -587 183z" />
<glyph unicode="R" horiz-adv-x="1243" d="M109 0l176 1249h454q238 1 347 -107q89 -88 89 -236q0 -32 -4 -68q-21 -176 -121 -281.5t-257 -130.5l299 -414l-5 -12h-159l-305 420h-316l-57 -420h-141zM326 551h374q140 0 227.5 74.5t102.5 210.5q2 22 2 42q0 105 -60 167q-72 73 -243 73h-323z" />
<glyph unicode="S" horiz-adv-x="1185" d="M35 180l78 105q99 -85 227 -128.5t244 -43.5q142 0 228.5 54t98.5 148q2 12 2 24q1 73 -63 125q-74 60 -281 126q-112 38 -183.5 73t-118.5 81t-62 102q-9 33 -9 72q0 29 5 61q19 131 148.5 211t316.5 80q228 0 460 -94l-57 -113q-204 82 -422 82q-121 0 -202 -49 t-93 -127q-2 -15 -2 -28q0 -44 20 -76q26 -42 99.5 -80t222.5 -87q218 -73 302 -164q67 -73 67 -177q0 -25 -4 -52q-23 -154 -157.5 -238.5t-332.5 -84.5q-136 0 -284 52.5t-248 145.5z" />
<glyph unicode="T" horiz-adv-x="1097" d="M117 1118l18 131h1043l-17 -131h-452l-158 -1118h-139l157 1118h-452z" />
<glyph unicode="U" horiz-adv-x="1357" d="M172 561l94 688h142l-97 -690q-8 -59 -8 -110q-1 -135 59 -219q82 -114 265 -115q177 0 296 120t148 326l98 688h140l-97 -690q-40 -278 -195.5 -427.5t-406.5 -149.5q-250 0 -364 150q-85 112 -84 294q0 63 10 135z" />
<glyph unicode="V" horiz-adv-x="1284" d="M127 1249h158l268 -962q19 -82 31 -148q31 82 69 148l529 962h164l-691 -1249h-174z" />
<glyph unicode="W" horiz-adv-x="1800" d="M127 1249h158l141 -962q9 -81 12 -158q9 27 30.5 82t29.5 76l417 962h158l150 -962l16 -158q23 85 55 158l410 962h158l-543 -1249h-203l-139 913q-7 64 -10 129q-16 -50 -47 -131l-398 -911h-200z" />
<glyph unicode="X" horiz-adv-x="1204" d="M-29 0l541 639l-348 610h174l270 -473q24 -49 25 -51q6 9 20.5 26t20.5 25l405 473h174l-520 -610l361 -639h-172l-283 510l-27 47q-5 -7 -19 -23t-20 -24l-428 -510h-174z" />
<glyph unicode="Y" horiz-adv-x="1146" d="M141 1249h148l270 -596q18 -41 27 -86q13 29 51 86l434 596h152l-586 -817l-59 -432h-142l62 430z" />
<glyph unicode="Z" horiz-adv-x="1191" d="M33 0l14 111l948 1011q-31 0 -92 -2t-90 -2h-588l17 131h952l-16 -116l-936 -1006q30 0 88 2t84 2h633l-19 -131h-995z" />
<glyph unicode="[" horiz-adv-x="722" d="M72 -358l239 1710h459l-16 -111h-332l-209 -1489h332l-15 -110h-458z" />
<glyph unicode="\" horiz-adv-x="835" d="M215 1360h121l278 -1780h-118z" />
<glyph unicode="]" horiz-adv-x="722" d="M-37 -358l17 110h331l209 1489h-332l15 111h459l-240 -1710h-459z" />
<glyph unicode="^" horiz-adv-x="956" d="M139 707l414 634h94l234 -634h-109l-149 417q-29 81 -35 127q-22 -49 -72 -127l-266 -417h-111z" />
<glyph unicode="_" horiz-adv-x="935" d="M20 -221l15 104h698l-14 -104h-699z" />
<glyph unicode="`" horiz-adv-x="993" d="M393 1346l109 77l235 -280l-47 -51q-161 114 -293 225z" />
<glyph unicode="a" d="M106 483q35 257 154.5 375.5t300.5 118.5q196 0 357 -141l16 122h137l-135 -958h-137l18 129q-104 -80 -176 -113.5t-180 -33.5q-83 0 -152.5 28.5t-123 85.5t-75.5 157q-12 55 -12 119q0 53 8 111zM242 301q12 -73 51 -118.5t89 -66t112 -20.5q94 0 165 34.5t175 117.5 l67 471q-161 141 -317 141q-290 0 -342 -381q-7 -54 -7 -99q1 -43 7 -79z" />
<glyph unicode="b" horiz-adv-x="1148" d="M76 0l188 1341h137l-71 -516q198 150 393 150q185 0 269 -117q60 -83 60 -238q0 -64 -10 -141q-18 -130 -66 -228.5t-115 -155.5t-141.5 -85t-156.5 -28q-111 0 -183 36t-149 113l-18 -131h-137zM250 262q71 -81 139 -123.5t152 -42.5q62 0 118.5 21.5t107.5 65.5t88 121 t52 179q8 58 8 107q0 270 -243 270q-158 0 -363 -170z" />
<glyph unicode="c" horiz-adv-x="1015" d="M90 473q33 238 180 371t353 133q195 0 329 -98l-63 -95q-120 76 -281 76q-145 0 -251.5 -101.5t-133.5 -287.5q-6 -43 -6 -82q-1 -121 57 -193q76 -96 218 -96q98 0 179 27t175 94l39 -92q-104 -82 -200 -114.5t-224 -32.5q-196 0 -300 130q-79 98 -79 255q0 50 8 106z " />
<glyph unicode="d" d="M82 483q19 131 62.5 228.5t106.5 154.5t137.5 84t162.5 27q186 0 342 -146l72 510h137l-189 -1341h-137l19 131q-105 -81 -178 -115t-181 -34q-83 0 -152 28t-122 86q-54 56 -76 156q-12 55 -12 121q0 52 8 110zM217 479q-7 -50 -7 -93q0 -46 8 -84q14 -76 52.5 -117.5 t88.5 -61t112 -19.5q92 0 167.5 39t174.5 119l64 457q-159 141 -316 141q-292 0 -344 -381z" />
<glyph unicode="e" horiz-adv-x="1069" d="M90 485q33 243 170 367.5t346 124.5q195 0 290 -118q75 -93 74 -255q0 -44 -5 -94q-8 -46 -15 -68h-739q-3 -31 -3 -59q0 -137 66 -207q78 -84 218 -84q195 0 362 123l35 -82q-99 -81 -195.5 -116t-218.5 -35q-203 0 -311 132q-82 101 -82 263q0 51 8 108zM229 551h619 q2 26 2 50q0 121 -56 187q-66 78 -198 78q-85 0 -155 -29t-127.5 -101.5t-84.5 -184.5z" />
<glyph unicode="f" horiz-adv-x="681" d="M100 842l17 116h139l12 93q22 162 102.5 239.5t237.5 77.5q108 0 180 -16l-24 -105q-62 6 -148 6q-102 0 -149.5 -50t-60.5 -154l-15 -91h311l-16 -116h-311l-119 -842h-135l119 842h-140z" />
<glyph unicode="g" horiz-adv-x="1114" d="M51 -209l41 109q179 -95 369 -95q302 0 348 334l8 54q-99 -79 -181.5 -114.5t-195.5 -35.5q-84 0 -152 25.5t-118 77t-70 138.5q-11 49 -11 106q0 46 7 97q35 256 153.5 373t301.5 117q191 0 354 -146l19 127h137l-115 -819q-22 -158 -90 -261.5t-166.5 -149 t-228.5 -45.5q-245 0 -410 108zM231 483q-6 -39 -6 -74q0 -44 9 -81q17 -66 56.5 -103t90 -54t113.5 -17q90 0 163 37.5t174 115.5l60 410q-83 69 -157 106t-159 37q-138 0 -227 -88t-117 -289z" />
<glyph unicode="h" horiz-adv-x="1130" d="M84 0l188 1341h136l-72 -516q100 79 187.5 114.5t191.5 35.5q156 -1 230 -99q55 -73 55 -191q0 -42 -7 -89l-84 -596h-137l82 567q7 50 7 91q0 82 -27 125q-40 65 -158 65q-91 0 -176.5 -37t-182.5 -115l-98 -696h-135z" />
<glyph unicode="i" horiz-adv-x="456" d="M94 0l133 958h138l-134 -958h-137zM250 1239q6 37 33 58.5t63 21.5q38 0 60 -22q18 -17 18 -45q0 -7 -2 -15q-6 -37 -33 -58.5t-63 -21.5q-38 1 -60 23q-18 18 -17 44q0 7 1 15z" />
<glyph unicode="j" horiz-adv-x="458" d="M-63 -233q73 32 104.5 89t50.5 185l127 917h137l-129 -919q-24 -170 -84.5 -258.5t-187.5 -122.5zM242 1239q6 37 33 58.5t63 21.5q37 0 60 -22q17 -17 17 -45q0 -7 -1 -15q-4 -37 -32 -58.5t-65 -21.5q-36 0 -57 23q-19 18 -19 48q0 5 1 11z" />
<glyph unicode="k" horiz-adv-x="1050" d="M76 0l188 1341h135l-120 -866l581 483h170l-2 -8l-440 -377l379 -567l-2 -6h-158l-328 479l-227 -194l-39 -285h-137z" />
<glyph unicode="l" horiz-adv-x="448" d="M88 0l188 1341h136l-187 -1341h-137z" />
<glyph unicode="m" horiz-adv-x="1732" d="M84 0l133 958h137l-16 -110q90 67 170 97t170 30q98 0 164 -42.5t94 -125.5q108 92 196.5 130t190.5 38q151 0 224 -99q53 -72 53 -188q0 -43 -7 -92l-84 -596h-135l80 567q8 54 8 97q0 76 -26 118q-40 66 -152 66q-155 0 -330 -139q1 -13 1 -27q0 -41 -7 -86l-84 -596 h-135l80 567q8 54 8 97q1 76 -25 118q-40 66 -153 66q-151 0 -320 -129l-100 -719h-135z" />
<glyph unicode="n" horiz-adv-x="1130" d="M84 0l133 958h137l-18 -133q100 79 187.5 114.5t191.5 35.5q156 -1 230 -99q55 -73 55 -191q0 -42 -7 -89l-84 -596h-137l86 582q7 49 7 89q1 81 -27 125q-40 66 -158 66q-88 0 -174 -41.5t-189 -124.5l-98 -696h-135z" />
<glyph unicode="o" horiz-adv-x="1140" d="M94 473q34 232 181 368t364 136q221 -1 329 -137q83 -104 82 -263q0 -50 -8 -106q-29 -224 -175.5 -356.5t-366.5 -132.5q-218 0 -328 132q-85 103 -85 264q0 45 7 95zM227 471q-7 -50 -7 -93q0 -278 294 -278q159 0 265.5 100.5t131.5 272.5q7 52 7 97q0 288 -293 288 q-158 0 -265.5 -104t-132.5 -283z" />
<glyph unicode="p" horiz-adv-x="1148" d="M29 -338l182 1296h135l-16 -127q204 144 393 144q185 0 269 -117q60 -83 60 -238q0 -64 -10 -141q-18 -130 -66 -228.5t-115 -155.5t-141.5 -85t-156.5 -28q-112 0 -183.5 35t-148.5 112l-65 -467h-137zM248 254q52 -53 85.5 -81.5t89 -52.5t118.5 -24q133 0 235 94.5 t131 292.5q8 58 8 107q0 270 -243 270q-151 0 -361 -151z" />
<glyph unicode="q" horiz-adv-x="1148" d="M92 292q-5 35 -5 74q0 54 9 117q67 494 455 494q198 0 354 -143l19 124h137l-182 -1296h-138l66 465q-100 -76 -180.5 -110.5t-190.5 -34.5q-65 0 -121 17.5t-104.5 54.5t-78 96t-40.5 142zM226 332q10 -63 31.5 -106.5t58 -70.5t78.5 -39t91 -12q93 0 170 38.5 t170 117.5l64 449q-158 151 -314 151q-292 0 -344 -381q-8 -50 -8 -93q0 -29 3 -54z" />
<glyph unicode="r" horiz-adv-x="755" d="M76 0l135 958h135l-24 -174q65 88 150 139.5t175 51.5q70 0 123 -6l-29 -133q-47 4 -114 4q-190 0 -328 -230l-86 -610h-137z" />
<glyph unicode="s" horiz-adv-x="915" d="M8 133l60 92q80 -64 163.5 -99.5t192.5 -35.5q100 0 163 38t72 112q1 10 1 20q0 52 -40 88q-48 44 -180 86q-187 60 -253 131q-54 59 -54 145q0 18 2 38q17 116 106.5 172.5t233.5 56.5q95 0 194 -23t177 -63l-49 -100q-76 34 -165 55.5t-159 21.5q-92 0 -147.5 -33 t-63.5 -92q-2 -12 -1 -23q1 -54 45 -89q54 -42 214 -99q168 -58 228 -124q47 -52 46 -136q0 -23 -3 -49q-17 -116 -114.5 -178.5t-258.5 -62.5q-103 0 -220.5 41t-189.5 110z" />
<glyph unicode="t" horiz-adv-x="720" d="M94 842l15 116h149l35 250h137l-35 -250h299l-14 -116h-301l-74 -539q-3 -21 -3 -40q0 -142 153 -142q67 0 163 12l17 -102q-56 -17 -100 -25.5t-65.5 -10t-57.5 -1.5q-138 0 -203 81q-49 61 -49 156q0 32 6 68l76 543h-148z" />
<glyph unicode="u" horiz-adv-x="1124" d="M123 365l84 593h135l-80 -565q-8 -53 -8 -96q0 -78 26 -120q40 -66 158 -66q174 0 363 155l96 692h137l-135 -958h-135l18 135q-101 -79 -190.5 -115t-192.5 -36q-154 0 -228 100q-55 74 -55 192q0 42 7 89z" />
<glyph unicode="v" horiz-adv-x="1032" d="M104 958h140l186 -661q14 -45 35 -150q53 114 74 150l372 661h142l-535 -958h-147z" />
<glyph unicode="w" horiz-adv-x="1466" d="M88 958h131l137 -677q17 -85 21 -134q34 87 57 134l299 677h131l109 -677q7 -59 18 -134q24 62 58 134l327 677h133l-456 -958h-162l-123 733l-330 -733h-164z" />
<glyph unicode="x" horiz-adv-x="958" d="M-43 0l434 483l-287 475h152l182 -301q45 -73 54 -92q12 16 25.5 31.5t29.5 33.5l24 27l265 301h155l-422 -477l295 -481h-149l-195 309q-37 60 -51 90q-12 -16 -25.5 -31t-28.5 -32t-24 -27l-280 -309h-154z" />
<glyph unicode="y" horiz-adv-x="1013" d="M68 -178q169 81 280 205l-270 931h145l187 -647q5 -19 13.5 -51.5t15 -57t10.5 -44.5l16 22q50 78 107.5 176t98.5 171.5t118 212t122 218.5h150q-50 -88 -146.5 -263.5t-172 -308.5t-146.5 -245q-207 -321 -494 -436z" />
<glyph unicode="z" horiz-adv-x="1003" d="M12 0l13 92l751 756q-61 -6 -172 -6h-461l17 116h817l-12 -90l-756 -757q122 4 188 4h477l-16 -115h-846z" />
<glyph unicode="{" horiz-adv-x="774" d="M104 455l13 96q148 3 205.5 61.5t80.5 227.5l23 153q23 163 120.5 248t284.5 102l-10 -96q-130 -21 -190 -82.5t-76 -173.5l-23 -151q-25 -169 -82 -243.5t-176 -94.5q75 -14 115 -49.5t54 -106t-5 -182.5l-20 -152q-16 -112 26.5 -173t165.5 -83l-12 -96 q-184 17 -258 102.5t-51 249.5l22 154q23 169 -18 227t-189 62z" />
<glyph unicode="|" horiz-adv-x="587" d="M104 -410l246 1751h117l-246 -1751h-117z" />
<glyph unicode="}" horiz-adv-x="774" d="M-49 -340l12 96q129 21 189.5 82.5t76.5 173.5l21 152q25 169 82.5 243.5t175.5 94.5q-111 21 -148.5 96t-13.5 242l21 151q16 112 -27 172.5t-166 83.5l12 96q183 -17 258 -103t52 -249l-23 -153q-23 -169 18 -227t189 -62l-14 -96q-148 -3 -206 -62t-81 -227l-23 -154 q-22 -163 -119.5 -248t-285.5 -102z" />
<glyph unicode="~" horiz-adv-x="870" d="M74 504q75 114 151 143.5t162 -14.5l164 -80q56 -29 104 -8.5t103 100.5l57 -41q-77 -118 -154.5 -150t-160.5 11l-164 82q-56 29 -103.5 10.5t-101.5 -94.5z" />
<glyph unicode="&#xa1;" horiz-adv-x="421" d="M29 -276l141 854h109l-101 -854h-149zM190 901q5 34 28.5 56t57.5 22q36 0 55 -23t13 -57q-5 -34 -28 -55t-58 -21t-54 22t-14 56z" />
<glyph unicode="&#xa2;" horiz-adv-x="1050" d="M110 334q-13 91 5 211q20 140 71 249.5t121.5 175.5t150 101.5t165.5 42.5l18 135h98l-18 -135q183 -13 301 -108l-57 -88q-116 83 -297 83q-68 0 -131.5 -24t-123 -75t-103.5 -144t-62 -217q-17 -120 0 -209.5t60 -139t98 -73t122 -23.5q111 0 199.5 29.5t171.5 97.5 l41 -82q-83 -75 -173 -112t-204 -45l-18 -119h-99l17 119q-66 4 -122.5 25t-107 63t-80.5 106.5t-43 155.5z" />
<glyph unicode="&#xa3;" horiz-adv-x="1110" d="M-6 0l14 100l176 13l70 321h-193l15 96h200l15 74q60 274 183.5 396t316.5 122q209 0 339 -108l-59 -90q-120 88 -278 88q-140 0 -229.5 -94t-137.5 -316l-16 -72h426l-15 -96h-432l-70 -319h639l-16 -115h-948z" />
<glyph unicode="&#xa5;" horiz-adv-x="1052" d="M115 188l10 80h303l18 135h-301l11 80h258l-291 629h145l244 -504l23 -71q7 13 22.5 36t22.5 35l383 504h145l-469 -629h283l-11 -80h-325l-19 -135h324l-12 -80h-324l-27 -188h-139l27 188h-301z" />
<glyph unicode="&#xa6;" horiz-adv-x="587" d="M104 -410l97 691h118l-98 -691h-117zM254 651l96 690h117l-96 -690h-117z" />
<glyph unicode="&#xa7;" horiz-adv-x="1196" d="M135 43l60 92q68 -67 171 -106t197 -39q95 0 153.5 38.5t67.5 104.5q10 70 -43 107.5t-213 87.5q-207 69 -287.5 136t-66.5 175q10 65 52 112.5t132 106.5q-60 60 -45 166q15 111 110 178.5t241 67.5q97 0 197 -23t175 -63l-49 -99q-69 37 -159.5 59.5t-165.5 22.5 q-94 0 -152.5 -38t-69.5 -103q-10 -71 42.5 -108.5t213.5 -90.5q208 -68 290 -135t65 -176q-9 -63 -50 -110t-133 -107q58 -63 43 -168q-15 -112 -110.5 -181t-243.5 -69q-112 0 -232 44.5t-190 117.5zM299 653q-4 -33 9 -61t36 -48t71 -42.5t92 -38.5t122 -41 q120 -44 178 -76q63 51 88 85t31 73q3 24 -3 45t-16.5 37t-35.5 33t-46.5 29t-64 29t-74 28t-88.5 30q-122 43 -178 76q-64 -53 -89.5 -86.5t-31.5 -71.5z" />
<glyph unicode="&#xa8;" horiz-adv-x="993" d="M324 1251q6 36 31 56t59 20q36 0 55.5 -21t15.5 -57q-6 -36 -31 -55.5t-61 -19.5q-32 0 -52.5 21t-16.5 56zM698 1251q4 36 29.5 56t60.5 20q34 0 54 -21t16 -57q-6 -35 -31 -55t-59 -20q-36 0 -56 20.5t-14 56.5z" />
<glyph unicode="&#xa9;" horiz-adv-x="1519" d="M129 625q0 175 85.5 323.5t233.5 235t324 86.5q175 0 322.5 -86.5t233 -235t85.5 -323.5q0 -176 -85.5 -324t-233 -233.5t-322.5 -85.5q-176 0 -324 85.5t-233.5 233.5t-85.5 324zM182 625q0 -161 79 -297t214.5 -214.5t296.5 -78.5t297 78.5t215.5 214.5t79.5 297 q0 159 -79.5 295.5t-216 216.5t-296.5 80t-296 -80t-215 -216t-79 -296zM432 616q25 173 133.5 276t265.5 103q158 0 269 -90l-51 -67q-92 67 -220 67q-117 0 -196 -78t-98 -211q-18 -128 44 -204t177 -76q140 0 264 102l35 -63q-141 -125 -322 -125q-154 0 -239.5 101 t-61.5 265z" />
<glyph unicode="&#xaa;" horiz-adv-x="780" d="M127 774q15 108 91.5 159.5t221.5 51.5q127 0 203 -2q17 114 -11 154.5t-122 40.5q-104 0 -244 -33l-8 80q154 45 277 45q141 0 189 -63.5t26 -225.5l-60 -408h-104l12 93q-71 -53 -132 -80t-134 -27q-235 0 -205 215zM227 782q-9 -70 24 -104.5t116 -34.5q64 0 119 27.5 t124 81.5l23 157h-191q-104 0 -155 -29.5t-60 -97.5z" />
<glyph unicode="&#xab;" horiz-adv-x="1062" d="M106 498l465 415l70 -73l-301 -275q-12 -10 -86 -69q60 -60 68 -70l223 -272l-88 -72zM446 498l465 415l68 -73l-301 -275q-28 -26 -86 -69q42 -38 67 -70l224 -272l-88 -72z" />
<glyph unicode="&#xad;" horiz-adv-x="796" d="M145 516l17 123h530l-18 -123h-529z" />
<glyph unicode="&#xae;" horiz-adv-x="1519" d="M119 625q0 175 85.5 323.5t233.5 235t324 86.5q175 0 322.5 -86.5t233 -235t85.5 -323.5q0 -176 -85.5 -324t-233 -233.5t-322.5 -85.5q-176 0 -324 85.5t-233.5 233.5t-85.5 324zM170 625q0 -161 79 -297t215.5 -214.5t297.5 -78.5q160 0 295.5 78.5t215 214.5t79.5 297 q0 159 -79.5 295.5t-215.5 216.5t-295 80q-161 0 -297.5 -80t-215.5 -216t-79 -296zM455 264l102 721h268q145 0 210 -59t50 -172q-12 -86 -62 -137.5t-130 -63.5q50 -24 86 -98t68 -191h-111q-37 127 -73 191.5t-77 64.5h-200l-35 -256h-96zM602 600h207q76 0 121.5 39.5 t54.5 112.5q10 73 -34 112t-136 39h-170z" />
<glyph unicode="&#xaf;" horiz-adv-x="993" d="M344 1182l12 114h480l-15 -114h-477z" />
<glyph unicode="&#xb0;" horiz-adv-x="681" d="M184 1034q14 106 86 171t176 65q107 0 162.5 -65.5t40.5 -174.5q-12 -100 -84 -161.5t-178 -61.5t-161.5 62t-41.5 165zM268 1030q-8 -63 26.5 -101t100.5 -38q71 0 117 38.5t53 104.5q9 69 -25.5 111.5t-101.5 42.5q-69 0 -116 -43t-54 -115z" />
<glyph unicode="&#xb1;" horiz-adv-x="952" d="M18 127l15 94h807l-15 -94h-807zM86 606l14 94h357l41 291h96l-41 -291h358l-14 -94h-358l-43 -293h-93l41 293h-358z" />
<glyph unicode="&#xb2;" horiz-adv-x="696" d="M104 686l11 74q46 33 124 88.5t120.5 86.5t99 76.5t87 78t54.5 72t29 75.5q11 74 -25 114t-112 40q-121 0 -269 -66l-22 72q177 78 313 78q117 0 173.5 -64t41.5 -178q-4 -27 -14 -53.5t-30 -54t-37 -49.5t-51.5 -51.5t-56 -48t-67.5 -51.5t-69.5 -49t-78.5 -54t-79 -54 q66 4 88 4h348l-10 -86h-568z" />
<glyph unicode="&#xb3;" horiz-adv-x="694" d="M86 758l41 67q124 -65 268 -65q88 0 142 37t63 106q9 73 -37 110.5t-147 37.5h-131l12 82h129q185 0 203 122q9 67 -29.5 103.5t-116.5 36.5q-132 0 -274 -60l-16 68q161 74 309 74q117 0 175.5 -57.5t43.5 -157.5q-9 -63 -52 -106.5t-108 -63.5q71 -23 106.5 -74 t26.5 -119q-15 -105 -94.5 -162t-210.5 -57q-78 0 -160 20.5t-143 57.5z" />
<glyph unicode="&#xb4;" horiz-adv-x="993" d="M449 1143l260 280l104 -77l-4 -29q-149 -115 -315 -225z" />
<glyph unicode="&#xb6;" horiz-adv-x="1095" d="M152 838q32 226 160 318.5t401 92.5h391l-14 -108l-226 -13l-157 -1128h-132l62 432h-39q-271 0 -374 93t-72 313z" />
<glyph unicode="&#xb7;" horiz-adv-x="548" d="M203 582q5 38 31.5 62t66.5 24q39 0 60 -25t16 -65q-5 -37 -32 -61.5t-66 -24.5t-60.5 25.5t-15.5 64.5z" />
<glyph unicode="&#xb8;" horiz-adv-x="993" d="M201 -375l22 84q78 -16 129 -16q127 0 137 76q7 49 -25 63t-120 14h-49l55 174h84l-20 -100q104 -5 146 -41t32 -119q-9 -75 -64.5 -117t-144.5 -42q-109 0 -182 24z" />
<glyph unicode="&#xb9;" horiz-adv-x="641" d="M98 678l13 86h217l80 586q-112 -40 -226 -64l-14 55q159 55 274 113h78l-96 -690h197l-13 -86h-510z" />
<glyph unicode="&#xba;" horiz-adv-x="888" d="M170 909q25 173 126.5 267t262.5 94q163 0 238.5 -95t50.5 -268q-23 -167 -124 -257.5t-263 -90.5t-238 91.5t-53 258.5zM272 907q-18 -127 33.5 -191.5t163.5 -64.5q239 0 276 258q20 133 -31 202t-165 69q-115 0 -186.5 -69.5t-90.5 -203.5z" />
<glyph unicode="&#xbb;" horiz-adv-x="1062" d="M70 150l299 274q49 42 94 74q-50 46 -70 71l-225 275l82 69l348 -415l-467 -416zM410 150l299 274q45 39 92 74q-30 28 -70 71l-223 275l80 69l350 -415l-467 -416z" />
<glyph unicode="&#xbc;" horiz-adv-x="1781" d="M98 473l13 86h217l80 586q-112 -40 -226 -64l-14 56q166 58 274 112h78l-96 -690h197l-13 -86h-510zM397 0l910 1249h92l-912 -1249h-90zM932 172l8 74l539 530h94l-74 -524h127l-10 -80h-127l-25 -172h-96l25 172h-461zM1040 252h363l59 410q-24 -30 -61 -62l-275 -264 q-21 -21 -50 -49t-36 -35z" />
<glyph unicode="&#xbd;" horiz-adv-x="1792" d="M90 473l12 86h217l82 586q-111 -39 -227 -64l-12 56q166 58 274 112h78l-96 -690h196l-12 -86h-512zM391 0l909 1249h91l-910 -1249h-90zM1053 0l10 74q46 33 124 88.5t120.5 86.5t99 76.5t87 78t54.5 72t29 75.5q11 74 -25 114t-112 40q-121 0 -269 -66l-22 72 q174 77 313 77q117 0 173.5 -63.5t41.5 -177.5q-4 -27 -14 -53.5t-30 -54t-37 -49.5t-51.5 -51.5t-56 -48t-67.5 -51.5t-69.5 -49t-78.5 -54t-79 -54q66 4 88 4h348l-10 -86h-567z" />
<glyph unicode="&#xbe;" horiz-adv-x="1761" d="M70 553l41 68q126 -66 270 -66q88 0 141 37t62 106q11 72 -36.5 110t-148.5 38h-129l13 82h129q182 0 200 123q9 67 -28 103t-115 36q-136 0 -274 -60l-19 68q161 74 309 74q117 0 176.5 -57.5t45.5 -157.5q-10 -63 -53.5 -106.5t-108.5 -63.5q71 -23 106.5 -74 t26.5 -119q-15 -105 -94 -162t-209 -57q-173 0 -305 78zM401 0l910 1249h90l-909 -1249h-91zM926 172l6 74l538 530h95l-74 -524h127l-10 -80h-127l-25 -172h-94l22 172h-458zM1032 252h365l57 410q-23 -28 -59 -62l-277 -264q-42 -44 -86 -84z" />
<glyph unicode="&#xbf;" horiz-adv-x="1032" d="M31 80q20 143 147 237.5t340 128.5l21 162h112l-14 -264q-204 -19 -326 -85.5t-137 -170.5q-15 -119 48 -188.5t190 -69.5q161 0 438 104l33 -104q-283 -127 -506 -127q-183 0 -277 102.5t-69 274.5zM557 901q5 34 28.5 56t57.5 22q36 0 55.5 -23t14.5 -57t-29 -55 t-59 -21t-54 22t-14 56z" />
<glyph unicode="&#xc0;" horiz-adv-x="1327" d="M-35 0l711 1249h186l363 -1249h-150l-94 330h-680l-186 -330h-150zM375 459h569l-158 545q-21 71 -32 145h-2q-39 -95 -68 -148zM541 1585l108 76l236 -279l-47 -51q-144 99 -293 225z" />
<glyph unicode="&#xc1;" horiz-adv-x="1327" d="M-35 0l711 1249h186l363 -1249h-150l-94 330h-680l-186 -330h-150zM375 459h569l-158 545q-21 71 -32 145h-2q-39 -95 -68 -148zM696 1389l262 280l105 -78l-6 -28q-131 -103 -314 -226z" />
<glyph unicode="&#xc2;" horiz-adv-x="1327" d="M-35 0l711 1249h186l363 -1249h-150l-94 330h-680l-186 -330h-150zM375 459h569l-158 545q-21 71 -32 145h-2q-39 -95 -68 -148zM473 1389l283 241h104l209 -241l-61 -58l-213 180l-271 -180z" />
<glyph unicode="&#xc3;" horiz-adv-x="1327" d="M-35 0l711 1249h186l363 -1249h-150l-94 330h-680l-186 -330h-150zM375 459h569l-158 545q-21 71 -32 145h-2q-39 -95 -68 -148zM465 1423q24 62 60.5 102.5t78 56.5t86 12t88.5 -27l111 -58q59 -29 101.5 -10t78.5 88l80 -16q-25 -64 -63 -106t-80.5 -58.5t-87.5 -14 t-87 24.5l-112 62q-60 30 -100 13.5t-78 -81.5z" />
<glyph unicode="&#xc4;" horiz-adv-x="1327" d="M-35 0l711 1249h186l363 -1249h-150l-94 330h-680l-186 -330h-150zM375 459h569l-158 545q-21 71 -32 145h-2q-39 -95 -68 -148zM522 1491q6 36 32.5 57t59.5 21q35 0 55.5 -21.5t16.5 -58.5q-6 -35 -31 -55.5t-61 -20.5q-34 0 -55 21.5t-17 56.5zM899 1491q4 36 28.5 57 t59.5 21t55.5 -21.5t16.5 -58.5q-6 -34 -32 -55t-58 -21q-36 0 -56 21t-14 57z" />
<glyph unicode="&#xc5;" horiz-adv-x="1327" d="M-35 0l711 1249h186l363 -1249h-150l-94 330h-680l-186 -330h-150zM375 459h569l-158 545q-21 71 -32 145h-2q-39 -95 -68 -148zM606 1532q12 86 71.5 138t143.5 52q86 0 131.5 -53t34.5 -141q-11 -78 -70.5 -128t-144.5 -50q-86 0 -131.5 50t-34.5 132zM690 1528 q-6 -44 18.5 -70t73.5 -26q50 0 83.5 27.5t37.5 72.5q6 51 -17.5 79.5t-74.5 28.5q-48 0 -81.5 -30t-39.5 -82z" />
<glyph unicode="&#xc6;" horiz-adv-x="1968" d="M-35 0l1108 1249h850l-16 -131h-678l-60 -422h594l-18 -131h-594l-59 -434h694l-17 -131h-837l47 326h-557l-287 -326h-170zM535 457h462l86 622z" />
<glyph unicode="&#xc7;" horiz-adv-x="1277" d="M127 625q43 311 220.5 478t465.5 167q118 0 233.5 -28.5t190.5 -78.5l-61 -108q-77 39 -178 61.5t-197 22.5q-226 0 -362 -132t-171 -384q-34 -243 62 -376.5t305 -133.5q270 0 467 129l41 -107q-213 -153 -531 -153h-30l-13 -62q104 -5 146.5 -41t32.5 -119 q-9 -75 -64.5 -117t-144.5 -42q-109 0 -183 24l23 84q78 -16 129 -16q127 0 137 76q7 49 -25 63t-120 14h-49l45 144q-215 35 -311 199t-58 436z" />
<glyph unicode="&#xc8;" horiz-adv-x="1144" d="M109 0l176 1249h815l-17 -131h-677l-60 -422h594l-18 -131h-594l-60 -434h695l-17 -131h-837zM453 1585l108 76l236 -279l-47 -51q-144 99 -293 225z" />
<glyph unicode="&#xc9;" horiz-adv-x="1144" d="M109 0l176 1249h815l-17 -131h-677l-60 -422h594l-18 -131h-594l-60 -434h695l-17 -131h-837zM559 1389l262 280l105 -78l-6 -28q-131 -103 -314 -226z" />
<glyph unicode="&#xca;" horiz-adv-x="1144" d="M109 0l176 1249h815l-17 -131h-677l-60 -422h594l-18 -131h-594l-60 -434h695l-17 -131h-837zM385 1389l283 241h104l209 -241l-61 -58l-213 180l-271 -180z" />
<glyph unicode="&#xcb;" horiz-adv-x="1144" d="M109 0l176 1249h815l-17 -131h-677l-60 -422h594l-18 -131h-594l-60 -434h695l-17 -131h-837zM434 1491q6 36 32.5 57t59.5 21q35 0 55.5 -21.5t16.5 -58.5q-6 -35 -31 -55.5t-61 -20.5q-34 0 -55 21.5t-17 56.5zM811 1491q4 36 28.5 57t59.5 21t55.5 -21.5t16.5 -58.5 q-6 -34 -32 -55t-58 -21q-36 0 -56 21t-14 57z" />
<glyph unicode="&#xcc;" horiz-adv-x="520" d="M109 0l176 1249h139l-174 -1249h-141zM137 1585l107 76l235 -279l-47 -51q-144 101 -291 225z" />
<glyph unicode="&#xcd;" horiz-adv-x="520" d="M109 0l176 1249h139l-174 -1249h-141zM293 1389l260 280l106 -78l-6 -28q-158 -122 -315 -226z" />
<glyph unicode="&#xce;" horiz-adv-x="520" d="M70 1389l282 241h103l211 -241l-62 -58l-213 180l-272 -180zM109 0l176 1249h139l-174 -1249h-141z" />
<glyph unicode="&#xcf;" horiz-adv-x="520" d="M109 0l176 1249h139l-174 -1249h-141zM119 1491q6 35 32 56.5t58 21.5q37 0 57.5 -21.5t14.5 -58.5q-6 -35 -31.5 -55.5t-59.5 -20.5t-54.5 21.5t-16.5 56.5zM494 1491q6 36 31 57t59 21t54.5 -21.5t14.5 -58.5q-6 -34 -31.5 -55t-58.5 -21q-35 0 -54 21t-15 57z" />
<glyph unicode="&#xd0;" horiz-adv-x="1337" d="M29 559l16 115h158l82 575h377q312 0 466 -157.5t113 -454.5q-44 -311 -241 -474t-508 -163h-383l79 559h-159zM268 131h242q241 0 397.5 130t190.5 378q35 241 -82.5 360t-370.5 119h-239l-62 -444h264l-16 -115h-264z" />
<glyph unicode="&#xd1;" horiz-adv-x="1417" d="M117 0l174 1249h127l629 -1013l6 40l135 973h141l-176 -1249h-127l-629 1010l-10 -76l-131 -934h-139zM508 1423q25 62 61.5 102.5t78 56.5t86.5 12t89 -27l111 -58q59 -29 100.5 -10t79.5 88l80 -16q-25 -64 -63 -106t-81 -58.5t-88 -14t-88 24.5l-110 62 q-60 30 -100 13.5t-78 -81.5z" />
<glyph unicode="&#xd2;" horiz-adv-x="1374" d="M127 625q43 310 218 477.5t454 167.5q277 0 405.5 -168t85.5 -479q-43 -307 -219 -474t-453 -167q-278 0 -406.5 167.5t-84.5 475.5zM268 623q-35 -248 60 -379t307 -131q213 0 346 132t168 380q34 250 -61 382t-308 132q-212 0 -344.5 -132.5t-167.5 -383.5zM563 1585 l109 76l235 -279l-47 -51q-144 99 -293 225z" />
<glyph unicode="&#xd3;" horiz-adv-x="1374" d="M127 625q43 310 218 477.5t454 167.5q277 0 405.5 -168t85.5 -479q-43 -307 -219 -474t-453 -167q-278 0 -406.5 167.5t-84.5 475.5zM268 623q-35 -248 60 -379t307 -131q213 0 346 132t168 380q34 250 -61 382t-308 132q-212 0 -344.5 -132.5t-167.5 -383.5zM719 1389 l262 280l104 -78l-6 -28q-137 -108 -313 -226z" />
<glyph unicode="&#xd4;" horiz-adv-x="1374" d="M127 625q43 310 218 477.5t454 167.5q277 0 405.5 -168t85.5 -479q-43 -307 -219 -474t-453 -167q-278 0 -406.5 167.5t-84.5 475.5zM268 623q-35 -248 60 -379t307 -131q213 0 346 132t168 380q34 250 -61 382t-308 132q-212 0 -344.5 -132.5t-167.5 -383.5zM496 1389 l282 241h105l209 -241l-62 -58l-213 180l-270 -180z" />
<glyph unicode="&#xd5;" horiz-adv-x="1374" d="M127 625q43 310 218 477.5t454 167.5q277 0 405.5 -168t85.5 -479q-43 -307 -219 -474t-453 -167q-278 0 -406.5 167.5t-84.5 475.5zM268 623q-35 -248 60 -379t307 -131q213 0 346 132t168 380q34 250 -61 382t-308 132q-212 0 -344.5 -132.5t-167.5 -383.5zM487 1423 q24 62 60.5 102.5t78.5 56.5t86.5 12t88.5 -27l110 -58q110 -58 181 78l79 -16q-25 -64 -63 -106t-80.5 -58.5t-87 -14t-86.5 24.5l-113 62q-60 30 -100 13.5t-78 -81.5z" />
<glyph unicode="&#xd6;" horiz-adv-x="1374" d="M127 625q43 310 218 477.5t454 167.5q277 0 405.5 -168t85.5 -479q-43 -307 -219 -474t-453 -167q-278 0 -406.5 167.5t-84.5 475.5zM268 623q-35 -248 60 -379t307 -131q213 0 346 132t168 380q34 250 -61 382t-308 132q-212 0 -344.5 -132.5t-167.5 -383.5zM545 1491 q6 36 32.5 57t59.5 21q35 0 55.5 -21.5t16.5 -58.5q-6 -35 -31.5 -55.5t-61.5 -20.5q-34 0 -54.5 21.5t-16.5 56.5zM922 1491q4 36 28.5 57t59.5 21t55 -21.5t16 -58.5q-6 -34 -32 -55t-58 -21q-36 0 -55.5 21t-13.5 57z" />
<glyph unicode="&#xd7;" horiz-adv-x="946" d="M96 238l305 266l-223 260l84 74l223 -258l297 260l62 -76l-293 -260l229 -266l-84 -74l-231 266l-303 -266z" />
<glyph unicode="&#xd8;" horiz-adv-x="1374" d="M70 45l131 129q-108 168 -68 451q43 309 218.5 477t453.5 168q244 0 375 -131l127 123l53 -56l-131 -129q108 -163 67 -454q-43 -307 -218.5 -474t-452.5 -167q-244 0 -375 131l-127 -125zM274 623q-27 -214 37 -340l762 749q-96 107 -285 107q-213 0 -346 -132.5 t-168 -383.5zM356 217q94 -104 285 -104q213 0 346 132t168 380q30 211 -37 344z" />
<glyph unicode="&#xd9;" horiz-adv-x="1357" d="M172 561l94 688h142l-97 -690q-31 -215 51.5 -329.5t264.5 -114.5q177 0 296 120t148 326l98 688h140l-97 -690q-40 -278 -195.5 -427.5t-406.5 -149.5q-249 0 -363.5 150.5t-74.5 428.5zM555 1585l109 76l235 -279l-47 -51q-144 99 -293 225z" />
<glyph unicode="&#xda;" horiz-adv-x="1357" d="M172 561l94 688h142l-97 -690q-31 -215 51.5 -329.5t264.5 -114.5q177 0 296 120t148 326l98 688h140l-97 -690q-40 -278 -195.5 -427.5t-406.5 -149.5q-249 0 -363.5 150.5t-74.5 428.5zM711 1389l262 280l104 -78l-6 -28q-137 -108 -313 -226z" />
<glyph unicode="&#xdb;" horiz-adv-x="1357" d="M172 561l94 688h142l-97 -690q-31 -215 51.5 -329.5t264.5 -114.5q177 0 296 120t148 326l98 688h140l-97 -690q-40 -278 -195.5 -427.5t-406.5 -149.5q-249 0 -363.5 150.5t-74.5 428.5zM487 1389l283 241h104l209 -241l-61 -58l-213 180l-270 -180z" />
<glyph unicode="&#xdc;" horiz-adv-x="1357" d="M172 561l94 688h142l-97 -690q-31 -215 51.5 -329.5t264.5 -114.5q177 0 296 120t148 326l98 688h140l-97 -690q-40 -278 -195.5 -427.5t-406.5 -149.5q-249 0 -363.5 150.5t-74.5 428.5zM537 1491q6 36 32.5 57t59.5 21q35 0 55 -21.5t16 -58.5q-6 -35 -31 -55.5 t-61 -20.5q-34 0 -54.5 21.5t-16.5 56.5zM913 1491q4 36 28.5 57t59.5 21t55.5 -21.5t16.5 -58.5q-6 -34 -32 -55t-58 -21q-36 0 -56 21t-14 57z" />
<glyph unicode="&#xdd;" horiz-adv-x="1146" d="M141 1249h148l270 -596q18 -41 27 -86q13 29 51 86l434 596h152l-586 -817l-59 -432h-142l62 430zM606 1389l262 280l105 -78l-6 -28q-131 -103 -314 -226z" />
<glyph unicode="&#xde;" horiz-adv-x="1175" d="M109 0l176 1249h139l-31 -219h271q246 0 358.5 -108.5t81.5 -315.5q-31 -215 -164.5 -315.5t-386.5 -100.5h-277l-26 -190h-141zM293 305h274q183 0 281.5 74.5t120.5 228.5q20 152 -59 225.5t-263 73.5h-270z" />
<glyph unicode="&#xdf;" horiz-adv-x="1187" d="M78 858l14 98h168q53 165 193.5 262t328.5 97q170 0 267 -91t75 -237q-15 -106 -91.5 -191.5t-176.5 -115.5q125 -30 192 -127t48 -229q-22 -154 -140.5 -248t-291.5 -94q-125 0 -242 30l27 103q109 -25 210 -25q124 0 209.5 68.5t100.5 179.5q17 125 -67.5 200.5 t-242.5 75.5h-118l14 119h117q129 0 218.5 67t102.5 175q15 103 -48 164t-175 61q-156 0 -263.5 -91.5t-129.5 -244.5l-121 -864h-137l119 846z" />
<glyph unicode="&#xe0;" d="M106 483q35 257 154.5 375.5t300.5 118.5q196 0 357 -141l16 122h137l-135 -958h-137l18 129q-104 -80 -176 -113.5t-180 -33.5q-83 0 -152.5 28.5t-123 85.5t-75.5 157t-4 230zM241.5 301q12.5 -73 51.5 -118.5t89 -66t112 -20.5q94 0 165 34.5t175 117.5l67 471 q-161 141 -317 141q-290 0 -342 -381q-13 -105 -0.5 -178zM492 1346l108 77l236 -280l-48 -51q-155 110 -292 225z" />
<glyph unicode="&#xe1;" d="M106 483q35 257 154.5 375.5t300.5 118.5q196 0 357 -141l16 122h137l-135 -958h-137l18 129q-104 -80 -176 -113.5t-180 -33.5q-83 0 -152.5 28.5t-123 85.5t-75.5 157t-4 230zM241.5 301q12.5 -73 51.5 -118.5t89 -66t112 -20.5q94 0 165 34.5t175 117.5l67 471 q-161 141 -317 141q-290 0 -342 -381q-13 -105 -0.5 -178zM547 1143l260 280l104 -77l-4 -29q-149 -115 -315 -225z" />
<glyph unicode="&#xe2;" d="M106 483q35 257 154.5 375.5t300.5 118.5q196 0 357 -141l16 122h137l-135 -958h-137l18 129q-104 -80 -176 -113.5t-180 -33.5q-83 0 -152.5 28.5t-123 85.5t-75.5 157t-4 230zM241.5 301q12.5 -73 51.5 -118.5t89 -66t112 -20.5q94 0 165 34.5t175 117.5l67 471 q-161 141 -317 141q-290 0 -342 -381q-13 -105 -0.5 -178zM381 1149l281 242h104l211 -242l-62 -55q-39 33 -108 90.5l-105 87.5q-211 -137 -272 -178z" />
<glyph unicode="&#xe3;" d="M106 483q35 257 154.5 375.5t300.5 118.5q196 0 357 -141l16 122h137l-135 -958h-137l18 129q-104 -80 -176 -113.5t-180 -33.5q-83 0 -152.5 28.5t-123 85.5t-75.5 157t-4 230zM241.5 301q12.5 -73 51.5 -118.5t89 -66t112 -20.5q94 0 165 34.5t175 117.5l67 471 q-161 141 -317 141q-290 0 -342 -381q-13 -105 -0.5 -178zM356 1204q24 62 60.5 102.5t78.5 56.5t86.5 12t88.5 -27l112 -58q59 -28 101.5 -9t79.5 87l77 -14q-25 -65 -62.5 -107.5t-80 -59t-87.5 -13.5t-87 26l-111 62q-61 30 -101.5 13t-76.5 -83z" />
<glyph unicode="&#xe4;" d="M106 483q35 257 154.5 375.5t300.5 118.5q196 0 357 -141l16 122h137l-135 -958h-137l18 129q-104 -80 -176 -113.5t-180 -33.5q-83 0 -152.5 28.5t-123 85.5t-75.5 157t-4 230zM241.5 301q12.5 -73 51.5 -118.5t89 -66t112 -20.5q94 0 165 34.5t175 117.5l67 471 q-161 141 -317 141q-290 0 -342 -381q-13 -105 -0.5 -178zM422 1251q6 36 31 56t59 20q36 0 56 -21t16 -57q-6 -36 -31 -55.5t-61 -19.5q-32 0 -53 21t-17 56zM797 1251q4 36 29.5 56t60.5 20q33 0 53 -21t16 -57q-6 -35 -31 -55t-59 -20q-36 0 -55.5 20.5t-13.5 56.5z" />
<glyph unicode="&#xe5;" d="M106 483q35 257 154.5 375.5t300.5 118.5q196 0 357 -141l16 122h137l-135 -958h-137l18 129q-104 -80 -176 -113.5t-180 -33.5q-83 0 -152.5 28.5t-123 85.5t-75.5 157t-4 230zM241.5 301q12.5 -73 51.5 -118.5t89 -66t112 -20.5q94 0 165 34.5t175 117.5l67 471 q-161 141 -317 141q-290 0 -342 -381q-13 -105 -0.5 -178zM500 1262q12 87 71.5 138.5t145.5 51.5q85 0 130.5 -53t33.5 -139q-11 -79 -71 -130t-144 -51q-85 0 -131 51.5t-35 131.5zM584 1260q-6 -46 18.5 -71.5t73.5 -25.5t82 27t41 72q6 53 -17.5 81.5t-74.5 28.5 q-48 0 -82 -30t-41 -82z" />
<glyph unicode="&#xe6;" horiz-adv-x="1748" d="M66 283q19 128 135 199t313 71q56 0 131 -1t127 -1q16 107 10 176t-48 102t-130 33q-147 0 -342 -47l-10 100q235 62 387 62q115 0 176 -42.5t82 -127.5q139 170 389 170q195 0 290 -118t69 -349q-8 -46 -15 -68h-739q-16 -181 62 -265.5t218 -84.5q196 0 363 123l35 -82 q-99 -81 -195.5 -116t-218.5 -35q-118 0 -205.5 45.5t-136.5 132.5q-102 -86 -203.5 -132t-218.5 -46q-196 0 -272 72t-53 229zM195 287q-15 -102 39 -148.5t196 -46.5q159 0 348 156q-23 89 -14 194h-10q-104 2 -252 2q-135 0 -216 -41t-91 -116zM909 551h619 q13 158 -53.5 236.5t-198.5 78.5q-85 0 -155 -29t-127.5 -101.5t-84.5 -184.5z" />
<glyph unicode="&#xe7;" horiz-adv-x="1015" d="M90 473q33 238 180 371t353 133q195 0 329 -98l-63 -95q-120 76 -281 76q-145 0 -251.5 -101.5t-133.5 -287.5q-24 -179 51.5 -275t217.5 -96q98 0 179 27t175 94l39 -92q-104 -82 -200 -114.5t-224 -32.5h-8l-13 -62q104 -5 146 -41t32 -119q-9 -75 -63.5 -117 t-142.5 -42q-112 0 -183 24l23 84q75 -16 127 -16q127 0 137 76q8 49 -23.5 63t-119.5 14h-51l47 144q-155 30 -231.5 155.5t-47.5 327.5z" />
<glyph unicode="&#xe8;" horiz-adv-x="1069" d="M90 485q33 243 170 367.5t346 124.5q195 0 290 -118t69 -349q-8 -46 -15 -68h-739q-16 -181 62.5 -265.5t218.5 -84.5q195 0 362 123l35 -82q-99 -81 -195.5 -116t-218.5 -35q-204 0 -311.5 132.5t-73.5 370.5zM229 551h619q13 158 -53.5 236.5t-198.5 78.5 q-85 0 -155 -29t-127.5 -101.5t-84.5 -184.5zM430 1348l107 75l235 -278l-47 -51q-144 101 -291 225z" />
<glyph unicode="&#xe9;" horiz-adv-x="1069" d="M90 485q33 243 170 367.5t346 124.5q195 0 290 -118t69 -349q-8 -46 -15 -68h-739q-16 -181 62.5 -265.5t218.5 -84.5q195 0 362 123l35 -82q-99 -81 -195.5 -116t-218.5 -35q-204 0 -311.5 132.5t-73.5 370.5zM229 551h619q13 158 -53.5 236.5t-198.5 78.5 q-85 0 -155 -29t-127.5 -101.5t-84.5 -184.5zM485 1145l260 278l105 -75l-6 -29q-146 -115 -314 -225z" />
<glyph unicode="&#xea;" horiz-adv-x="1069" d="M90 485q33 243 170 367.5t346 124.5q195 0 290 -118t69 -349q-8 -46 -15 -68h-739q-16 -181 62.5 -265.5t218.5 -84.5q195 0 362 123l35 -82q-99 -81 -195.5 -116t-218.5 -35q-204 0 -311.5 132.5t-73.5 370.5zM229 551h619q13 158 -53.5 236.5t-198.5 78.5 q-85 0 -155 -29t-127.5 -101.5t-84.5 -184.5zM317 1151l283 242h105l210 -242l-63 -57q-63 56 -213 180q-238 -158 -270 -180z" />
<glyph unicode="&#xeb;" horiz-adv-x="1069" d="M90 485q33 243 170 367.5t346 124.5q195 0 290 -118t69 -349q-8 -46 -15 -68h-739q-16 -181 62.5 -265.5t218.5 -84.5q195 0 362 123l35 -82q-99 -81 -195.5 -116t-218.5 -35q-204 0 -311.5 132.5t-73.5 370.5zM229 551h619q13 158 -53.5 236.5t-198.5 78.5 q-85 0 -155 -29t-127.5 -101.5t-84.5 -184.5zM360 1253q4 35 30.5 55.5t60.5 20.5q35 0 55 -21.5t16 -58.5q-6 -35 -31 -54t-61 -19q-34 0 -55 21t-15 56zM735 1253q4 36 28.5 56t59.5 20t55.5 -21.5t16.5 -58.5q-6 -34 -32 -53.5t-58 -19.5q-36 0 -56 20.5t-14 56.5z" />
<glyph unicode="&#xec;" horiz-adv-x="456" d="M70 1346l108 77l236 -280l-47 -51q-161 114 -293 225zM80 0l135 958h135l-133 -958h-137z" />
<glyph unicode="&#xed;" horiz-adv-x="456" d="M80 0l135 958h135l-133 -958h-137zM180 1143l260 280l105 -77l-6 -29q-122 -96 -314 -225z" />
<glyph unicode="&#xee;" horiz-adv-x="456" d="M14 1149l283 242h102l211 -242l-61 -55q-43 37 -114.5 96t-98.5 82q-39 -26 -129 -84t-144 -94zM80 0l135 958h135l-133 -958h-137z" />
<glyph unicode="&#xef;" horiz-adv-x="456" d="M55 1251q6 35 32 55.5t58 20.5q36 0 57 -21t15 -57q-4 -35 -29.5 -55t-60.5 -20q-34 0 -55 21t-17 56zM80 0l135 958h135l-133 -958h-137zM432 1251q4 36 28.5 56t59.5 20q34 0 55 -21.5t15 -56.5q-4 -35 -30 -55t-60 -20q-35 0 -54.5 20.5t-13.5 56.5z" />
<glyph unicode="&#xf0;" horiz-adv-x="1140" d="M82 473q16 116 61.5 203t128.5 152t213 98.5t306 34.5q-60 84 -162 169l-281 -135l-29 84l236 113q-48 37 -158 113v20l129 55q88 -64 162 -123l225 109l31 -84l-184 -88q181 -167 241.5 -330t28.5 -391h-135q31 223 -43 383q-138 -1 -240 -16.5t-172.5 -45t-117 -78 t-71 -108.5t-36.5 -143q-26 -182 47.5 -276.5t237.5 -94.5q165 0 267 96t128 281h135q-32 -233 -175 -361t-370 -128q-226 0 -331.5 128t-71.5 363z" />
<glyph unicode="&#xf1;" horiz-adv-x="1130" d="M84 0l133 958h137l-18 -133q100 79 187.5 114.5t191.5 35.5q156 0 230 -98.5t48 -280.5l-84 -596h-137l86 582q20 149 -20.5 214.5t-157.5 65.5q-88 0 -174 -41.5t-189 -124.5l-98 -696h-135zM348 1204q25 62 61.5 102.5t78.5 56.5t87 12t89 -27l110 -58q59 -28 101 -9.5 t79 87.5l80 -14q-25 -65 -63 -107.5t-80.5 -59t-87.5 -13.5t-88 26l-111 62q-61 29 -100.5 12.5t-77.5 -82.5z" />
<glyph unicode="&#xf2;" horiz-adv-x="1140" d="M94 473q34 232 181 368t364 136q220 0 328.5 -136.5t74.5 -369.5q-29 -224 -175.5 -356.5t-366.5 -132.5q-218 0 -327.5 132.5t-78.5 358.5zM227 471q-53 -371 287 -371q159 0 265.5 100.5t131.5 272.5q53 385 -286 385q-158 0 -265.5 -104t-132.5 -283zM479 1348l109 75 l235 -278l-47 -51q-139 98 -293 225z" />
<glyph unicode="&#xf3;" horiz-adv-x="1140" d="M94 473q34 232 181 368t364 136q220 0 328.5 -136.5t74.5 -369.5q-29 -224 -175.5 -356.5t-366.5 -132.5q-218 0 -327.5 132.5t-78.5 358.5zM227 471q-53 -371 287 -371q159 0 265.5 100.5t131.5 272.5q53 385 -286 385q-158 0 -265.5 -104t-132.5 -283zM535 1145 l260 278l106 -75l-6 -29q-151 -119 -313 -225z" />
<glyph unicode="&#xf4;" horiz-adv-x="1140" d="M94 473q34 232 181 368t364 136q220 0 328.5 -136.5t74.5 -369.5q-29 -224 -175.5 -356.5t-366.5 -132.5q-218 0 -327.5 132.5t-78.5 358.5zM227 471q-53 -371 287 -371q159 0 265.5 100.5t131.5 272.5q53 385 -286 385q-158 0 -265.5 -104t-132.5 -283zM369 1151 l282 242h103l211 -242l-62 -57q-34 30 -69.5 60t-77 64.5t-66.5 55.5q-32 -21 -85 -55.5t-98.5 -64.5t-88.5 -60z" />
<glyph unicode="&#xf5;" horiz-adv-x="1140" d="M94 473q34 232 181 368t364 136q220 0 328.5 -136.5t74.5 -369.5q-29 -224 -175.5 -356.5t-366.5 -132.5q-218 0 -327.5 132.5t-78.5 358.5zM227 471q-53 -371 287 -371q159 0 265.5 100.5t131.5 272.5q53 385 -286 385q-158 0 -265.5 -104t-132.5 -283zM344 1206 q25 62 61.5 102.5t78 56.5t86.5 12t89 -27l111 -58q59 -29 100.5 -10t79.5 88l80 -16q-25 -64 -63 -106t-80.5 -58.5t-87.5 -14t-88 24.5l-111 62q-61 30 -100.5 13.5t-77.5 -81.5z" />
<glyph unicode="&#xf6;" horiz-adv-x="1140" d="M94 473q34 232 181 368t364 136q220 0 328.5 -136.5t74.5 -369.5q-29 -224 -175.5 -356.5t-366.5 -132.5q-218 0 -327.5 132.5t-78.5 358.5zM227 471q-53 -371 287 -371q159 0 265.5 100.5t131.5 272.5q53 385 -286 385q-158 0 -265.5 -104t-132.5 -283zM410 1253 q6 35 32 55.5t58 20.5q36 0 56.5 -21.5t14.5 -58.5q-4 -34 -29.5 -53.5t-60.5 -19.5q-34 0 -54.5 21t-16.5 56zM786 1253q4 36 28.5 56t59.5 20q34 0 55 -21.5t15 -58.5q-4 -34 -30 -53.5t-60 -19.5q-35 0 -54.5 20.5t-13.5 56.5z" />
<glyph unicode="&#xf7;" horiz-adv-x="948" d="M66 432l16 105h805l-15 -105h-806zM354 180q5 34 28.5 55t57.5 21q35 0 54 -22.5t14 -57.5q-5 -32 -28.5 -53t-57.5 -21q-35 0 -54 22t-14 56zM444 811q3 32 26.5 53t57.5 21q36 0 55 -22t13 -56q-5 -34 -28 -55t-58 -21t-53.5 22.5t-12.5 57.5z" />
<glyph unicode="&#xf8;" horiz-adv-x="1140" d="M68 55l86 84q-87 133 -60 334q34 232 181 368t364 136q170 0 279 -86l83 82l43 -47l-81 -80q116 -138 79 -375q-29 -224 -175.5 -356.5t-366.5 -132.5q-197 0 -307 110l-84 -82zM227 471q-19 -153 23 -238l577 570q-73 55 -202 55q-158 0 -265.5 -104t-132.5 -283z M283 180q74 -80 231 -80q159 0 265.5 100.5t131.5 272.5q24 191 -41 283z" />
<glyph unicode="&#xf9;" horiz-adv-x="1124" d="M123 365l84 593h135l-80 -565q-22 -150 18 -216t158 -66q174 0 363 155l96 692h137l-135 -958h-135l18 135q-101 -79 -190.5 -115t-192.5 -36q-154 0 -228 99.5t-48 281.5zM471 1346l109 77l235 -280l-47 -51q-161 114 -293 225z" />
<glyph unicode="&#xfa;" horiz-adv-x="1124" d="M123 365l84 593h135l-80 -565q-22 -150 18 -216t158 -66q174 0 363 155l96 692h137l-135 -958h-135l18 135q-101 -79 -190.5 -115t-192.5 -36q-154 0 -228 99.5t-48 281.5zM526 1143l260 280l105 -77l-4 -29q-143 -111 -316 -225z" />
<glyph unicode="&#xfb;" horiz-adv-x="1124" d="M123 365l84 593h135l-80 -565q-22 -150 18 -216t158 -66q174 0 363 155l96 692h137l-135 -958h-135l18 135q-101 -79 -190.5 -115t-192.5 -36q-154 0 -228 99.5t-48 281.5zM360 1149l281 242h104l211 -242l-61 -55q-39 33 -108 90.5l-105 87.5q-211 -137 -272 -178z" />
<glyph unicode="&#xfc;" horiz-adv-x="1124" d="M123 365l84 593h135l-80 -565q-22 -150 18 -216t158 -66q174 0 363 155l96 692h137l-135 -958h-135l18 135q-101 -79 -190.5 -115t-192.5 -36q-154 0 -228 99.5t-48 281.5zM401 1251q6 35 31.5 55.5t59.5 20.5q36 0 55.5 -21t15.5 -57q-6 -36 -31 -55.5t-61 -19.5 q-33 0 -53.5 21t-16.5 56zM776 1251q4 36 29.5 56t60.5 20q34 0 54 -21t16 -57q-6 -35 -31 -55t-59 -20q-36 0 -56 20.5t-14 56.5z" />
<glyph unicode="&#xfd;" horiz-adv-x="1013" d="M68 -178q169 81 280 205l-270 931h145l187 -647q5 -19 13.5 -51.5t15 -57t10.5 -44.5l16 22q50 78 107.5 176t98.5 171.5t118 212t122 218.5h150q-50 -88 -146.5 -263.5t-172 -308.5t-146.5 -245q-207 -321 -494 -436zM477 1143l260 280l105 -77l-6 -29 q-122 -96 -314 -225z" />
<glyph unicode="&#xfe;" horiz-adv-x="1146" d="M29 -338l231 1655h137l-67 -479q210 139 391 139q387 0 317 -498q-18 -130 -66 -228.5t-115 -155.5t-141.5 -85t-156.5 -28q-109 0 -180.5 34t-149.5 109l-63 -463h-137zM246 242q79 -75 140.5 -110.5t150.5 -35.5q133 0 235 94.5t131 292.5q52 377 -235 377 q-145 0 -355 -141z" />
<glyph unicode="&#xff;" horiz-adv-x="1013" d="M68 -178q169 81 280 205l-270 931h145l187 -647q5 -19 13.5 -51.5t15 -57t10.5 -44.5l16 22q50 78 107.5 176t98.5 171.5t118 212t122 218.5h150q-50 -88 -146.5 -263.5t-172 -308.5t-146.5 -245q-207 -321 -494 -436zM352 1251q4 35 30 55.5t60 20.5q35 0 55.5 -21 t16.5 -57q-6 -36 -31 -55.5t-61 -19.5q-34 0 -55 21t-15 56zM727 1251q4 36 28.5 56t59.5 20t55.5 -21t16.5 -57q-6 -35 -31.5 -55t-58.5 -20q-36 0 -56 20.5t-14 56.5z" />
<glyph unicode="&#x152;" horiz-adv-x="1966" d="M113 625q43 310 218 477.5t453 167.5q136 0 238 -51l4 30h817l-16 -131h-678l-59 -422h593l-18 -131h-594l-61 -434h696l-18 -131h-836l4 33q-114 -51 -252 -51q-277 0 -405.5 167.5t-85.5 475.5zM254 623q-34 -248 61 -379t306 -131q146 0 256 61l127 905 q-89 60 -236 60q-213 0 -346 -132.5t-168 -383.5z" />
<glyph unicode="&#x153;" horiz-adv-x="1900" d="M94 473q34 232 181 368t364 136q138 0 235 -56.5t142 -160.5q68 107 176.5 162t245.5 55q195 0 289.5 -117.5t68.5 -349.5q-9 -53 -14 -68h-740q-16 -181 62.5 -265.5t218.5 -84.5q196 0 363 123l34 -82q-99 -81 -195 -116t-218 -35q-131 0 -225.5 57t-137.5 164 q-73 -106 -187 -163.5t-257 -57.5q-218 0 -327.5 132.5t-78.5 358.5zM227 471q-53 -371 287 -371q159 0 265.5 100.5t131.5 272.5q53 385 -286 385q-158 0 -265.5 -104t-132.5 -283zM1061 551h618q13 158 -53.5 236.5t-198.5 78.5q-85 0 -154.5 -29t-127 -101.5 t-84.5 -184.5z" />
<glyph unicode="&#x178;" horiz-adv-x="1146" d="M141 1249h148l270 -596q18 -41 27 -86q13 29 51 86l434 596h152l-586 -817l-59 -432h-142l62 430zM432 1491q6 36 32.5 57t59.5 21q35 0 55.5 -21.5t16.5 -58.5q-6 -35 -31 -55.5t-61 -20.5q-34 0 -55 21.5t-17 56.5zM809 1491q4 36 28.5 57t59.5 21t55.5 -21.5 t16.5 -58.5q-6 -34 -32 -55t-58 -21q-36 0 -56 21t-14 57z" />
<glyph unicode="&#x2c6;" horiz-adv-x="993" d="M283 1149l280 242h105l211 -242l-62 -55q-39 33 -108 90.5l-105 87.5q-211 -137 -272 -178z" />
<glyph unicode="&#x2dc;" horiz-adv-x="993" d="M258 1204q24 62 60.5 102.5t78 56.5t86 12t88.5 -27l113 -58q59 -28 101 -9.5t79 87.5l78 -14q-25 -65 -62.5 -107.5t-80 -59t-87.5 -13.5t-87 26l-111 62q-61 30 -101.5 13t-76.5 -83z" />
<glyph unicode="&#x2000;" horiz-adv-x="861" />
<glyph unicode="&#x2001;" horiz-adv-x="1722" />
<glyph unicode="&#x2002;" horiz-adv-x="861" />
<glyph unicode="&#x2003;" horiz-adv-x="1722" />
<glyph unicode="&#x2004;" horiz-adv-x="574" />
<glyph unicode="&#x2005;" horiz-adv-x="430" />
<glyph unicode="&#x2006;" horiz-adv-x="287" />
<glyph unicode="&#x2007;" horiz-adv-x="287" />
<glyph unicode="&#x2008;" horiz-adv-x="215" />
<glyph unicode="&#x2009;" horiz-adv-x="344" />
<glyph unicode="&#x200a;" horiz-adv-x="95" />
<glyph unicode="&#x2010;" horiz-adv-x="796" d="M145 516l17 123h530l-18 -123h-529z" />
<glyph unicode="&#x2011;" horiz-adv-x="796" d="M145 516l17 123h530l-18 -123h-529z" />
<glyph unicode="&#x2012;" horiz-adv-x="796" d="M145 516l17 123h530l-18 -123h-529z" />
<glyph unicode="&#x2013;" horiz-adv-x="1024" d="M139 514l15 107h755l-14 -107h-756z" />
<glyph unicode="&#x2014;" horiz-adv-x="1822" d="M139 514l15 107h1554l-14 -107h-1555z" />
<glyph unicode="&#x2018;" horiz-adv-x="507" d="M238 1036q9 84 73 174.5t158 153.5l33 -43q-51 -39 -92 -98.5t-58 -116.5q31 -6 46.5 -29t11.5 -55q-5 -38 -32 -62t-67 -24q-39 0 -58.5 27.5t-14.5 72.5z" />
<glyph unicode="&#x2019;" horiz-adv-x="507" d="M201 979q50 39 91 98t58 117q-31 6 -46.5 29t-10.5 55q5 38 31.5 62t66.5 24q39 0 59 -27.5t15 -72.5q-9 -84 -73 -174t-159 -154z" />
<glyph unicode="&#x201a;" horiz-adv-x="507" d="M39 -168q50 39 91 98t58 117q-31 6 -46.5 29t-10.5 55q5 38 31.5 62t66.5 24q39 0 59 -27.5t15 -72.5q-9 -84 -73 -174.5t-158 -153.5z" />
<glyph unicode="&#x201c;" horiz-adv-x="794" d="M238 1036q9 84 73 174.5t158 153.5l33 -43q-51 -39 -92 -98.5t-58 -116.5q31 -6 46.5 -29t11.5 -55q-5 -38 -32 -62t-67 -24q-39 0 -58.5 27.5t-14.5 72.5zM524 1036q9 84 73 174t159 154l32 -43q-50 -39 -91 -98t-58 -117q31 -6 46.5 -29t10.5 -55q-5 -38 -31.5 -62 t-66.5 -24q-39 0 -59 27.5t-15 72.5z" />
<glyph unicode="&#x201d;" horiz-adv-x="794" d="M201 979q50 39 91 98t58 117q-31 6 -46.5 29t-10.5 55q5 38 31.5 62t66.5 24q39 0 59 -27.5t15 -72.5q-9 -84 -73 -174t-159 -154zM487 979q51 39 92 98.5t58 116.5q-31 6 -46.5 29t-10.5 55q5 38 31.5 62t66.5 24q39 0 59 -27.5t15 -72.5q-9 -84 -73 -174t-159 -154z " />
<glyph unicode="&#x201e;" horiz-adv-x="794" d="M25 -168q50 39 91 98t58 117q-30 6 -45.5 29t-11.5 55q5 38 31.5 62t66.5 24q39 0 60 -27.5t16 -72.5q-10 -85 -74 -175t-158 -153zM311 -168q51 39 92 98.5t58 116.5q-30 6 -46 29t-12 55q5 38 32 62t67 24q39 0 60 -27.5t16 -72.5q-10 -85 -74 -175t-158 -153z" />
<glyph unicode="&#x2022;" horiz-adv-x="630" d="M201 580q9 57 48.5 92t96.5 35q59 0 89 -35.5t22 -93.5q-8 -56 -47 -91.5t-97 -35.5t-89 36t-23 93z" />
<glyph unicode="&#x2026;" horiz-adv-x="1400" d="M119 84q5 38 31.5 62t66.5 24t61 -25t15 -63q-5 -38 -31.5 -63t-64.5 -25q-41 0 -62.5 25.5t-15.5 64.5zM578 84q5 38 31.5 62t64.5 24q41 0 62 -24.5t16 -63.5t-32.5 -63.5t-66.5 -24.5t-60 25.5t-15 64.5zM1032 84q5 38 31.5 62t66.5 24t61 -25t15 -63 q-5 -38 -31.5 -63t-64.5 -25q-41 0 -62.5 25.5t-15.5 64.5z" />
<glyph unicode="&#x202f;" horiz-adv-x="344" />
<glyph unicode="&#x2039;" horiz-adv-x="724" d="M104 498l465 415l70 -73l-301 -275q-31 -27 -88 -69q30 -28 69 -70l222 -272l-86 -72z" />
<glyph unicode="&#x203a;" horiz-adv-x="724" d="M68 150l299 274q44 39 92 74q-42 39 -68 71l-225 275l82 69l348 -415l-467 -416z" />
<glyph unicode="&#x205f;" horiz-adv-x="430" />
<glyph unicode="&#x20ac;" horiz-adv-x="1214" d="M70 387l12 80h149q3 37 9 78q7 45 14 71h-150l11 82h159q33 109 90 191.5t127.5 131t145.5 72t154 23.5q218 0 356 -110l-57 -88q-123 88 -297 88q-53 0 -105 -16t-104.5 -50t-98.5 -96t-75 -146h542l-37 -82h-528q-7 -26 -14 -75q-1 -8 -2.5 -23.5t-2.5 -28t-1 -22.5 h491l-37 -80h-454q4 -83 30.5 -143t68.5 -92t88 -46t99 -14q211 0 369 131l43 -84q-95 -84 -198 -120.5t-242 -36.5q-61 0 -115.5 13t-105 43.5t-87.5 76t-60.5 115t-25.5 157.5h-161z" />
<glyph unicode="&#x2122;" horiz-adv-x="1560" d="M190 1169l11 80h579l-12 -80h-242l-69 -491h-92l69 491h-244zM776 678l105 571h88l151 -446q2 -8 8 -35q3 6 9 19t8 16l276 446h90l-55 -571h-88l45 426l-260 -426h-76l-139 428l-76 -428h-86z" />
<glyph unicode="&#x25fc;" horiz-adv-x="962" d="M0 0v963h963v-963h-963z" />
<glyph unicode="&#xfb03;" horiz-adv-x="1734" d="M100 842l17 116h139l12 93q22 162 102.5 239.5t237.5 77.5q108 0 180 -16l-24 -105q-62 6 -148 6q-102 0 -149.5 -50t-60.5 -154l-15 -91h486l12 93q22 162 101.5 239.5t236.5 77.5q81 0 211 -20l-23 -99q-130 13 -180 13q-100 0 -148 -54t-61 -159l-14 -91h614 l-133 -958h-137l117 842h-478l-118 -842h-136l119 842h-485l-119 -842h-135l119 842h-140zM1513 1239q4 37 31.5 58.5t63.5 21.5q38 0 59.5 -21.5t15.5 -60.5q-4 -37 -31.5 -58.5t-62.5 -21.5q-38 0 -60 22.5t-16 59.5z" />
<glyph unicode="&#xfb04;" horiz-adv-x="1716" d="M100 842l17 116h139l12 93q22 162 102.5 239.5t237.5 77.5q108 0 180 -16l-24 -105q-62 6 -148 6q-102 0 -149.5 -50t-60.5 -154l-15 -91h486l14 93q24 162 103 239.5t235 77.5q93 0 313 -41l4 35h137l-190 -1362h-137l172 1229q-173 24 -293 24q-100 0 -147.5 -50 t-61.5 -154l-12 -91h307l-14 -116h-310l-116 -842h-138l117 842h-485l-119 -842h-135l119 842h-140z" />
</font>
</defs>
</svg>
